Ошибка

Волчья стая / Оборотни / Jin Roh: The Wolf Brigade [Movie][2000][драма, триллер, фантастика][BDRip][720p][Профессиональный (JAP+SUB)]

Ответить на тему
 
Автор Сообщение

Sunny17

Пол: Пол:Жен

Стаж: 7 лет 3 месяца

Сообщений: 733

Россия
Рейтинг

post 21-Окт-2009 12:57 0[+]

[Цитировать] 

Оборотни | Волчья стая | Jin Roh: The Wolf Brigade | 人狼 JIN-ROH



Премьера: 03.06.2000
Страна:
Жанр: драма, триллер, фантастика
Тип: полнометражный фильм
Продолжительность: 01:41:59

Режиссер Окиура Хироюки / Okiura Hiroyuki / 沖浦啓之
Автор оригинала: Осии Мамору / Oshii Mamoru / 押井守
Студия:

Озвучка:
  • Профессиональная (многоголосая, закадровая) МС
Субтитры:
  • Русские (внешние, str) МС
  • Английские (встроенные)

Описание: На одном из заданий спецназовец Фусэ из элитного "Бронеотряда Церберы" невольно становится причиной гибели юной террористки. Девушка взрывает себя у него на глазах. А вскоре он, казалось бы, случайно знакомится с её старшей сестрой, и у них начинается роман... Роман, похожий на страшную сказку о Красной Шапочке, старинную книгу с которой дарит Фусе его новая подруга. И с каждой прочитанной страницей мир вокруг них начинает меняться и рушиться. Водоворот событий - обман и неотличимая от обмана правда, предательство и политические интриги, сны и галлюцинации, хищники и жертвы - все вместе выплескивается в трагический финал, лишний раз доказывающий, что наиболее опасное из всех животных - человек.
Качество: BDRip, 720p [THORA]
Хардсаб: Отсутствует
Формат: MKV
Видео: AVC, 1280х692 (16:9), 23.976 fps, 3440 kbps
Аудио:
  • - AC-3, 48,0 KHz, 6 channels (Front: L C R, Side: L R, LFE), 384 kbps
  • - AC-3, 48,0 KHz, 6 channels (Front: L C R, Side: L R, LFE), 640 kbps

Общее
Уникальный идентификатор : 179977238878231139235607140035984954757 (0x87665AF94A61D238A76AA4715E791585)
Полное имя : D:\АНИМЕ\Jin Roh\Jin-Roh.mkv
Формат : Matroska
Размер файла : 3,18 Гбайт
Продолжительность : 1 ч. 41 м.
Общий поток : 4469 Кбит/сек
Дата кодирования : UTC 2007-11-18 03:16:38
Программа кодирования : mkvmerge v2.0.2 ('You're My Flame') built on Feb 21 2007 23:40:55
Библиотека кодирования : libebml v0.7.7 + libmatroska v0.8.1
Обложка : Yes / Yes / Yes / Yes / Yes / Yes / Yes / Yes

Видео
Идентификатор : 1
Формат : AVC
Формат/Информация : Advanced Video Codec
Профиль формата : High@L5.1
Параметр CABAC формата : Да
Параметр ReFrames формата : 13 кадров
Идентификатор кодека : V_MPEG4/ISO/AVC
Продолжительность : 1 ч. 41 м.
Битрейт : 3440 Кбит/сек
Ширина : 1280 пикс.
Высота : 692 пикс.
Соотношение сторон : 1,850
Частота кадров : 23,976 кадр/сек
Цветовое пространство : YUV
Подвыборка цветности : 4:2:0
Битовая глубина : 8 бит
Тип развёртки : Прогрессивная
Бит/(Пиксели*Кадры) : 0.162
Размер потока : 2,39 Гбайт (75%)
Библиотека кодирования : x264 core 56 svn-680
Настройки программы : cabac=1 / ref=10 / deblock=1:-3:-3 / analyse=0x3:0x133 / me=umh / subme=7 / brdo=1 / mixed_ref=1 / me_range=16 / chroma_me=1 / trellis=0 / 8x8dct=1 / cqm=2 / deadzone=9,9 / chroma_qp_offset=0 / threads=6 / nr=0 / decimate=1 / mbaff=0 / bframes=10 / b_pyramid=1 / b_adapt=1 / b_bias=0 / direct=1 / wpredb=1 / bime=1 / keyint=250 / keyint_min=25 / scenecut=40(pre) / rc=2pass / bitrate=3440 / ratetol=1.0 / rceq='blurCplx^(1-qComp)' / qcomp=0.60 / qpmin=10 / qpmax=51 / qpstep=4 / cplxblur=20.0 / qblur=0.5 / ip_ratio=1.40 / pb_ratio=1.30 / aq=1:0.7:15.0
Язык : English

Аудио #1
Идентификатор : 2
Формат : AC-3
Формат/Информация : Audio Coding 3
Расширение режима : CM (complete main)
Идентификатор кодека : A_AC3
Продолжительность : 1 ч. 41 м.
Вид битрейта : Постоянный
Битрейт : 384 Кбит/сек
Каналы : 6 каналов
Расположение каналов : Front: L C R, Side: L R, LFE
Частота : 48,0 КГц
Битовая глубина : 16 бит
Метод сжатия : С потерями
Размер потока : 280 Мбайт (9%)
Заголовок : Ru
Язык : Russian

Аудио #2
Идентификатор : 3
Формат : AC-3
Формат/Информация : Audio Coding 3
Расширение режима : CM (complete main)
Идентификатор кодека : A_AC3
Продолжительность : 1 ч. 41 м.
Вид битрейта : Постоянный
Битрейт : 640 Кбит/сек
Каналы : 6 каналов
Расположение каналов : Front: L C R, Side: L R, LFE
Частота : 48,0 КГц
Битовая глубина : 16 бит
Метод сжатия : С потерями
Размер потока : 467 Мбайт (14%)
Заголовок : Jp
Язык : Japanese

Текст
Идентификатор : 4
Формат : ASS
Идентификатор кодека : S_TEXT/ASS
Идентификатор кодека/Информация : Advanced Sub Station Alpha
Метод сжатия : Без потерь
Язык : English
info [Профиль]  [ЛС] 

mazillla

Предупреждений: 1

Рейтинг

post 22-Окт-2009 02:21 (спустя 13 часов) [-]0[+]

[Цитировать] 

Ну зачем в описании пересказывать сюжет? Теперь даже не знаю, смотреть или нет...
 

Sunny17

Пол: Пол:Жен

Стаж: 7 лет 3 месяца

Сообщений: 733

Россия
Рейтинг

post 22-Окт-2009 02:40 (спустя 18 минут) [-]0[+]

[Цитировать] 

mazillla
описание взяла откуда скачивала. Разочарование А так советую посмотреть! Улыбаюсь

_________________
info [Профиль]  [ЛС] 

Tears of

Предупреждений: 1

Рейтинг

post 22-Окт-2009 07:22 (спустя 4 часа) [-]1[+]

[Цитировать] 

Соглашусь ибо аниме,что надо Улыбаюсь
Качать не буду т.к. есть на лицензионная копия,но просмотр обязателен всем ценителям психологической драмы Улыбаюсь

P.S.Описание,кстати нормальное т.к. на коробке с самим диском написано тоже самое
 

Джекилл

Пол: Пол:Муж

Стаж: 7 лет 2 месяца

Сообщений: 168

Великобритания
Рейтинг

post 22-Окт-2009 13:52 (спустя 6 часов) [-]0[+]

[Цитировать] 

Спасибо.
info [Профиль]  [ЛС] 

sarhil

Пол: Пол:Муж

Стаж: 7 лет 1 месяц

Сообщений: 833

Гонконг
Рейтинг

post 02-Май-2010 20:44 (спустя 6 месяцев 11 дней) [-]0[+]

[Цитировать] 

Сид подкинь угля, плиззз
anime_40
info [Профиль]  [ЛС] 

agerage

Пол: Пол:Муж

Стаж: 7 лет 1 месяц

Сообщений: 836

Япония
Рейтинг

post 15-Сен-2010 23:13 (спустя 4 месяца 13 дней) [-]1[+]

[Цитировать] 

Очень глубокое аниме. Советую посмотреть. А отдельное слово стоит сказать про наишикарнийший соундтрек! Напоминает OST Metal Gear Solid.
info [Профиль]  [ЛС] 
Показать сообщения:    
Ответить на тему

Текущее время: 09-Дек 21:24

Часовой пояс: GMT + 4



Вы не можете начинать темы
Вы не можете отвечать на сообщения
Вы не можете редактировать свои сообщения
Вы не можете удалять свои сообщения
Вы не можете голосовать в опросах
Вы не можете прикреплять файлы к сообщениям
Вы не можете скачивать файлы