Ошибка

Берсерк: Золотой век. Фильм II. Битва за Долдрей / Berserk Ogon Jidai-hen II: Doldrey Koryaku [Movie][2013][аниме, приключения, фэнтези, драма][HDRip][Дублированный]

Ответить на тему
 
Автор Сообщение

BZzz

Пол: Пол:Муж

Стаж: 5 лет 1 месяц

Сообщений: 3647

Россия
Рейтинг

post 10-Янв-2014 20:38 2[+]

[Цитировать] 

Берсерк: Золотой век. Фильм II. Битва за Долдрей / Berserk Ogon Jidai-hen II: Doldrey Koryaku


Год выпуска: 2013
Страна: Япония
Жанр: аниме, фэнтези, драма, приключения
Продолжительность: 01:32:47
Перевод: Профессиональный (дублированный)[лицензия]

Режиссер: Тосиюки Кубоока

Описание: 100-летняя война королевства Мидланд и империи Тюдор подходит к концу: у стен крепости Долдрей, со взятия которой имперцами и начался «железный век», появляется банда Ястреба. Теперь это не простой отряд наемников, а ударная часть регулярной армии Мидланда.
Несмотря на предельно краткое резюме штаба королевской армии насчет Долдрей – «взять нереально» – «ястребы» полны решимости клинками проложить путь к светлому будущему с балами и пирами. Если занять крепость окажется не под силу даже Гриффиту, возможно, величайшему герою тысячелетия, то вряд ли еще один безумец впоследствии рискнет своими зубами против этого «орешка».
Но в самом ли деле кому-то нужен покой в Мидланде? Ведь даже наследница престола восклицает: «Я одинока, пока в мире властвует мир…»

© Ярослав Гафнер, World Art


Качество: HDRip
Формат: AVI
Видео кодек: XviD
Аудио кодек: AC3
Видео: 720x304 (2.35:1), 23.976 fps, XviD, 1 794 Kbps
Аудио #1: AC3, 448 Kbps, 48.0 KHz, 6 ch
Format : AVI
Format/Info : Audio Video Interleave
File size : 1.46 GiB
Duration : 1h 32mn
Overall bit rate : 2 251 Kbps
Writing application : VirtualDubMod 1.5.10.3 | www.virtualdub-fr.org || (build 2550/release)
Writing library : VirtualDubMod build 2550/release

Video
ID : 0
Format : MPEG-4 Visual
Format profile : Advanced Simple@L5
Format settings, BVOP : 2
Format settings, QPel : No
Format settings, GMC : No warppoints
Format settings, Matrix : Default (H.263)
Codec ID : XVID
Codec ID/Hint : XviD
Duration : 1h 32mn
Bit rate : 1 794 Kbps
Width : 720 pixels
Height : 304 pixels
Display aspect ratio : 2.35:1
Frame rate : 23.976 fps
Color space : YUV
Chroma subsampling : 4:2:0
Bit depth : 8 bits
Scan type : Progressive
Compression mode : Lossy
Bits/(Pixel*Frame) : 0.342
Stream size : 1.16 GiB (80%)
Writing library : XviD 1.2.1 (UTC 2008-12-04)

Audio
ID : 1
Format : AC-3
Format/Info : Audio Coding 3
Mode extension : CM (complete main)
Format settings, Endianness : Big
Codec ID : 2000
Duration : 1h 32mn
Bit rate mode : Constant
Bit rate : 448 Kbps
Channel count : 6 channels
Channel positions : Front: L C R, Side: L R, LFE
Sampling rate : 48.0 KHz
Bit depth : 16 bits
Compression mode : Lossy
Stream size : 297 MiB (20%)
Alignment : Split accross interleaves
Interleave, duration : 42 ms (1.00 video frame)
Interleave, preload duration : 500 ms
info [Профиль]  [ЛС] 

Nerzyllys

Пол: Пол:Муж

Стаж: 3 года 8 месяцев

Сообщений: 36

Предупреждений: 1

Россия
Рейтинг

post 23-Янв-2014 18:32 (спустя 12 дней) [-]0[+]

[Цитировать] 

Стоит смотреть тому, кто не смотрел первую часть?
info [Профиль]  [ЛС] 

Sirgeras

Пол: Пол:Муж

Стаж: 6 лет 8 месяцев

Сообщений: 80

Россия
Рейтинг

post 23-Янв-2014 18:33 (спустя 1 минута) [-]2[+]

[Цитировать] 

Бог, а что мешает посмотреть 1 часть?
info [Профиль]  [ЛС] 

stavrken

Пол: Пол:Муж

Стаж: 4 года 11 месяцев

Сообщений: 22

Россия
Рейтинг

post 23-Янв-2014 18:43 (спустя 10 минут) [-]4[+]

[Цитировать] 

Бог писал(а):

Стоит смотреть тому, кто не смотрел первую часть?
не стоит -все 3 части связаны.по сути они в 3 фильма весь сериал пересняли. эх продолжения бы.
info [Профиль]  [ЛС] 

mormegil

Пол: Пол:Муж

Стаж: 7 лет 8 месяцев

Сообщений: 517

Россия
Рейтинг

post 23-Янв-2014 19:53 (спустя 1 час 9 минут) [-]0[+]

[Цитировать] 

хд планируется?

_________________
i7-2600 CPU @ 3.40GHz ОЗУ 8Gb GTX590 3Gb GDDR5
info [Профиль]  [ЛС] 

Witcher

Пол: Пол:Муж

Стаж: 7 лет 8 месяцев

Сообщений: 6196

Рейтинг

post 23-Янв-2014 21:23 (спустя 1 час 29 минут) [-]0[+]

[Цитировать] 

mormegil
Да. Завтра будет.

_________________
Темы не проверяю, для этого есть модераторы.
info [Профиль]  [ЛС] 

kirushqa

Стаж: 4 года 8 месяцев

Сообщений: 14

Рейтинг

post 23-Янв-2014 22:16 (спустя 52 минуты) [-]0[+]

[Цитировать] 

stavrken писал(а):

Бог писал(а):

Стоит смотреть тому, кто не смотрел первую часть?
не стоит -все 3 части связаны.по сути они в 3 фильма весь сериал пересняли. эх продолжения бы.
А ничего по 4 части не слышно? В 3 части после титров небольшой тизер вроде как.
info [Профиль]  [ЛС] 

Kasius

Пол: Пол:Муж

Стаж: 7 лет 3 месяца

Сообщений: 75

Украина
Рейтинг

post 23-Янв-2014 23:33 (спустя 1 час 16 минут) [-]2[+]

[Цитировать] 

Если не ошибаюсь, обещали 6 мувиков.

добавлено спустя 1 минута 33 секунды:

Бог писал(а):

Стоит смотреть тому, кто не смотрел первую часть?
Лучше сериал посмотри, классная вещь.

_________________
info [Профиль]  [ЛС] 
Показать сообщения:    
Ответить на тему

Текущее время: 09-Дек 17:34

Часовой пояс: GMT + 4



Вы не можете начинать темы
Вы не можете отвечать на сообщения
Вы не можете редактировать свои сообщения
Вы не можете удалять свои сообщения
Вы не можете голосовать в опросах
Вы не можете прикреплять файлы к сообщениям
Вы не можете скачивать файлы