Ошибка

Деревенская глубинка / Non Non Biyori [TV] [1-12 из 12] [2013] [комедия, повседневность] [BDRip] [720p] [Любительский(JAP+SUB)]

Ответить на тему
 
Автор Сообщение

Алмаз

Пол: Пол:Муж

Стаж: 6 лет 4 месяца

Сообщений: 1836

Россия
Рейтинг

post 09-Янв-2014 15:26 1[+]

[Цитировать] 


Год выпуска: 2013
Страна: Япония
Жанр: комедия, повседневность
Продолжительность: 13 эп. по 25 мин.
Выпуск: c 08.10.2013 по 24.12.2013
Перевод:
  • русские субтитры от YakuSub Studio (полные/вспомогательные)
    редактор: Harushechka, оформление: Helge, переводчик: Lulu

Режиссер: Кавамо Синъя
Студия: Silver Link
Описание:
11-летняя Хотару Итидзё переселилась из Токио в настоящую японскую глубинку – настолько глухую, что до ближайшего книжного магазина час езды поездом. Нравы здесь простые, двери никто не запирает – зачем, ведь все друг друга знают до седьмого колена. Излишне говорить, что в сельской школе в одной комнате учится все местное детское население – первоклассница Рэнгэ, семиклассница Нацуми, ее сестра восьмиклассница Комари и их на год старший брат Сугуру. А теперь вот еще и пятиклассница Хотару прибавилась!
Конечно, сперва многие сцены деревенского быта показались юной столичной жительнице странными и необычными. Но потом Хотару, кстати, в обоих отношениях весьма развитая для своего возраста, начала понимать, что «на всякого мудреца довольно простоты». На природе под ясным небом чувства делаются проще, чище и глубже, а развлекаться с подругами среди полей и холмов можно не хуже, чем в каменных джунглях Гиндзы или Синдзюку. У главной героини появился отличный шанс стать лучше, мудрее и ответственнее, и тогда за взрослую и зрелую девушку ее будет принимать не только наивная малышка Комари!
© Hollow, World Art
В названии сериала non – вовсе не отрицательная частица, а диалектный суффикс, который употребляют деревенские жители, аналогично русскому архаичному «-тко» или «-кось». Не случайно младшую из героинь подруги зовут Рэнгэ-тон (вместо –тян), а приезжую Хотару сразу «перекрестили» в Хотарун. Biyori значит «погода», но в переносном смысле также «обстановка, положение дел» («погода в доме»). Поэтому у японского зрителя при виде названия сразу возникают ассоциации в духе «деревня» или «глубинка».
Информационные ссылки: AniDB || World Art || MAL
Качество: BDRip
Энкод: Winter - RG Pantheon
Тип видео: без хардсаба
Формат: mkv
Видео: x264 (Hi10p), 1280x720, ~2700 Kbps, 23.976 fps
Аудио JAP: Vorbis, 48000Hz, ~256 Kbps, 2ch
Аудио RUS 1-2: AC3, 48000Hz, ~192 Kbps, 2ch (внешними файлами)
  • одноголосая (жен.) от Eladiel (Anilibria)
  • одноголосая (муж.) от Inspector Gadjet (AniDub)
01. The Transfer Student Came
02. We Went to the Candy Store
03. I Ran Away from Home with My Sister
04. Summer Vacation Started
05. I Pretended I Forgot My Swimsuit
06. I Became a Ghost and Tried Hard
07. My Rice Crackers Turned Into Curry
08. We Cooked Rice at School
09. We Tried Having a Cultural Festival
10. We Watched the First Sunrise of the Year
11. We Made a Snow House
12. Spring Came Again
Общее
Уникальный идентификатор : 248007474379409129365643205730736070616 (0xBA94808BD928F5F2A71189615338DFD8)
Полное имя : Z:\Anime\720p\Non Non Biyori [BD] [720p]\[Winter] Non Non Biyori 02 [BDrip 1280x720 x264 Vorbis].mkv
Формат : Matroska
Версия формата : Version 2
Размер файла : 530 Мбайт
Продолжительность : 23 м.
Режим общего битрейта : Переменный
Общий поток : 3098 Кбит/сек
Дата кодирования : UTC 2014-01-09 04:11:24
Программа кодирования : mkvmerge v2.9.8 ('C'est le bon') built on Aug 13 2009 12:49:06
Библиотека кодирования : libebml v0.7.7 + libmatroska v0.8.1

Видео
Идентификатор : 1
Формат : AVC
Формат/Информация : Advanced Video Codec
Профиль формата : High 10@L4.1
Параметр CABAC формата : Да
Параметр ReFrames формата : 9 кадров
Идентификатор кодека : V_MPEG4/ISO/AVC
Продолжительность : 23 м.
Битрейт : 2780 Кбит/сек
Ширина : 1280 пикселей
Высота : 720 пикселей
Соотношение сторон : 16:9
Режим частоты кадров : Постоянный
Частота кадров : 23,976 кадра/сек
Цветовое пространство : YUV
Субдискретизация насыщенности : 4:2:0
Битовая глубина : 10 бит
Тип развёртки : Прогрессивная
Бит/(Пиксели*Кадры) : 0.126
Размер потока : 476 Мбайт (90%)
Библиотека кодирования : x264 core 132 r2309 3b1f1f7
Настройки программы : cabac=1 / ref=9 / deblock=1:-2:-2 / analyse=0x3:0x133 / me=umh / subme=9 / psy=1 / psy_rd=0.90:0.00 / mixed_ref=1 / me_range=24 / chroma_me=1 / trellis=2 / 8x8dct=1 / cqm=0 / deadzone=21,11 / fast_pskip=1 / chroma_qp_offset=-2 / threads=6 / lookahead_threads=1 / sliced_threads=0 / nr=0 / decimate=0 / interlaced=0 / bluray_compat=0 / constrained_intra=0 / bframes=8 / b_pyramid=2 / b_adapt=2 / b_bias=0 / direct=1 / weightb=1 / open_gop=0 / weightp=2 / keyint=250 / keyint_min=23 / scenecut=40 / intra_refresh=0 / rc=crf / mbtree=0 / crf=15.4 / qcomp=0.70 / qpmin=9 / qpmax=42 / qpstep=4 / ip_ratio=1.40 / pb_ratio=1.30 / aq=1:0.90 / zones=1440,3596,b=1.3
Default : Нет
Forced : Нет

Аудио
Идентификатор : 2
Формат : Vorbis
Параметр Floor формата : 1
Идентификатор кодека : A_VORBIS
Продолжительность : 23 м.
Вид битрейта : Переменный
Битрейт : 256 Кбит/сек
Каналы : 2 канала
Частота : 48,0 КГц
Метод сжатия : С потерями
Размер потока : 43,8 Мбайт (8%)
Библиотека кодирования : libVorbis (Schaufenugget) (20101101 (Schaufenugget))
Язык : Japanese
Default : Да
Forced : Нет

  • Данный релиз предназначен для просмотра на ПК. Воспроизведение на иных проигрывателях не гарантируется. Для просмотра рекомендуется Media Player Classic с установленным пакетом кодеков K-Lite.
  • Данный релиз содержит 10-битное видео (Hi10p). Для корректного воспроизведения обязательно используйте кодеки, поддерживающие 10-битное видео.
  • Данный релиз предназначен для просмотра с внешними субтитрами и внешними звуковыми дорожками.
    • Для просмотра с внешней звуковой дорожкой нужно:
      перекинуть файлы .mka из папки "RUS Sound [<автор(ы) озвучки>]" в одну папку с видео и переключить звуковую дорожку в плеере при просмотре.
    • Для просмотра с субтитрами нужно:
      перекинуть файлы .ass из папки "RUS Subtitles [<автор(ы) перевода>]" в одну папку с видео - плеер подгрузит их автоматически при открытии видео.
info [Профиль]  [ЛС] 

Алмаз

Пол: Пол:Муж

Стаж: 6 лет 4 месяца

Сообщений: 1836

Россия
Рейтинг

post 14-Июн-2014 20:07 (спустя 5 месяцев 5 дней) [-]0[+]

[Цитировать] 

03. I Ran Away from Home with My Sister
04. Summer Vacation Started
05. I Pretended I Forgot My Swimsuit
06. I Became a Ghost and Tried Hard
07. My Rice Crackers Turned Into Curry
08. We Cooked Rice at School
09. We Tried Having a Cultural Festival
10. We Watched the First Sunrise of the Year

_________________
Паранойя - чрезвычайно утешительное состояние ума. Если вам кажется, что против вас что-то замышляют - значит вы что-то да стоите! (с) Гильбран Трус (Митчелл Сэнди - Игра предателя)
info [Профиль]  [ЛС] 

SEVER

Стаж: 5 лет 5 месяцев

Сообщений: 983

Рейтинг

post 21-Июн-2014 12:29 (спустя 6 дней) [-]-1[+]

[Цитировать] 

Когда же уже оставшиеся 2 серии выпустят. anime_61

_________________
Inter core i5 4670k, gtx 650 ti boost, 8 gb ram
info [Профиль]  [ЛС] 

Алмаз

Пол: Пол:Муж

Стаж: 6 лет 4 месяца

Сообщений: 1836

Россия
Рейтинг

post 06-Июл-2014 22:15 (спустя 15 дней) [-]0[+]

[Цитировать] 

11. We Made a Snow House
12. Spring Came Again

_________________
Паранойя - чрезвычайно утешительное состояние ума. Если вам кажется, что против вас что-то замышляют - значит вы что-то да стоите! (с) Гильбран Трус (Митчелл Сэнди - Игра предателя)
info [Профиль]  [ЛС] 

Zekat

Пол: Пол:Муж

Стаж: 5 лет 5 месяцев

Сообщений: 324

Рейтинг

post 07-Июл-2014 19:29 (спустя 21 час) [-]0[+]

[Цитировать] 

Эх аниме хорошее, совсем не напрягает, есть над чем посмеяться, и сюжет не однотипный. Советую для разнообразия kolob_117

_________________
info [Профиль]  [ЛС] 

Kiprian

Пол: Пол:Муж

Стаж: 4 года 1 месяц

Сообщений: 166

Россия
Рейтинг

post 12-Сен-2015 09:34 (спустя 1 год 2 месяца) [-]0[+]

[Цитировать] 

второй сезон будет выкладываться?

_________________
info [Профиль]  [ЛС] 

Алмаз

Пол: Пол:Муж

Стаж: 6 лет 4 месяца

Сообщений: 1836

Россия
Рейтинг

post 18-Ноя-2015 06:04 (спустя 2 месяца 5 дней) [-]0[+]

[Цитировать] 

Kiprian
Будет, но спешить пока некуда - диски ещё не скоро все выйдут.

_________________
Паранойя - чрезвычайно утешительное состояние ума. Если вам кажется, что против вас что-то замышляют - значит вы что-то да стоите! (с) Гильбран Трус (Митчелл Сэнди - Игра предателя)
info [Профиль]  [ЛС] 
Показать сообщения:    
Ответить на тему

Текущее время: 08-Дек 00:16

Часовой пояс: GMT + 4



Вы не можете начинать темы
Вы не можете отвечать на сообщения
Вы не можете редактировать свои сообщения
Вы не можете удалять свои сообщения
Вы не можете голосовать в опросах
Вы не можете прикреплять файлы к сообщениям
Вы не можете скачивать файлы