Ошибка

Несносный дед / Jackass Presents: Bad Grandpa (Джефф Треймейн) [2013, комедия, WEB-DLRip]

Ответить на тему
 
Автор Сообщение

Linuxoid

Пол: Пол:Муж

Стаж: 6 лет

Сообщений: 284

Украина
Рейтинг

post 09-Янв-2014 01:16 1[+]

[Цитировать] 

Несносный дед / Jackass Presents: Bad Grandpa

Год выпуска: 2013
Страна: США
Жанр: комедия
Продолжительность: 01:32:08
Перевод: Любительский (одноголосый закадровый)
Режиссер: Джефф Треймейн
Сценарий: Джонни Ноксвил, Джефф Треймейн, Факс Бар, ...
Продюсер: Дерек Фреда, Спайк Джонс, Джонни Ноксвил, ...
Оператор: Лэнс Бэнгс, Дмитрий Еляшкевич
Композитор: -
Художник: Линдси Кейр
В ролях: Джонни Ноксвил / Johnny Knoxville (Irving Zisman), Джексон Николл / Jackson Nicoll (Billy), Грег Харрис / Greg Harris (Chuck), Джорджина Кэйтс / Georgina Cates (Kimmie), Камбер Хейлик / Kamber Hejlik (Doctor), Джилл Килл / Jill Kill (Pageant Reporter)
Описание: 86-летний старикан по имени Ирвинг Зисман путешествует по Америке с необычным компаньоном — восьмилетним «внуком» Билли.По дороге заводной дедушка знакомит впечатлительного Билли с людьми, местами и ситуациями, которые вряд ли укладываются в рамки привычных представлений о воспитании. Парочка столкнется со стриптизерами, разъяренными участниками помпезного детского конкурса красоты и их не менее злыми мамашами, скорбящими посетителями панихиды, завсегдатаями бара для байкеров и другими ничего не подозревающими гражданами США.
Бюджет: $15 000 000
Сборы в США: $101 642 090
Сборы в мире: + $43 000 000 = $144 642 090 сборы
Зрители: Германия 864 тыс. , Мексика 837.2 тыс. , Бразилия 400 тыс.
Премьера (мир): 23 октября 2013, ...
Премьера (РФ): 23 января 2014, «Централ Партнершип»
Рейтинг MPAA: Лицам до 17 лет обязательно присутствие взрослого



Качество: WEB-DLRip
Формат: MPEG-4
Видео кодек: AVC
Аудио кодеk: AAC LC
Видео: 480x272 (16:9), 25.000 fps, AVC, 600 Kbps
Аудио: Аудио #1: AAC LC, 128 Kbps, 48.0 KHz, 2 ch

Код:

General
Complete name                    : Nesnostniy ded.mp4
Format                           : MPEG-4
Format profile                   : Base Media
Codec ID                         : isom
File size                        : 484 MiB
Duration                         : 1h 32mn
Overall bit rate                 : 735 Kbps
Track name/Position              : 1
Track name/Total                 : 0
Encoded date                     : 2014
Writing application              : Lavf54.59.107
Cover                            : Yes
Comment                          : www.dvdvideosoft.com

Video
ID                               : 1
Format                           : AVC
Format/Info                      : Advanced Video Codec
Format profile                   : Baseline@L1.3
Format settings, CABAC           : No
Format settings, ReFrames        : 2 frames
Codec ID                         : avc1
Codec ID/Info                    : Advanced Video Coding
Duration                         : 1h 32mn
Duration_LastFrame               : -7ms
Bit rate mode                    : Variable
Bit rate                         : 600 Kbps
Width                            : 480 pixels
Height                           : 272 pixels
Display aspect ratio             : 16:9
Frame rate mode                  : Constant
Frame rate                       : 25.000 fps
Color space                      : YUV
Chroma subsampling               : 4:2:0
Bit depth                        : 8 bits
Scan type                        : Progressive
Bits/(Pixel*Frame)               : 0.184
Stream size                      : 397 MiB (82%)
Writing library                  : x264 core 129 r2230 1cffe9f
Encoding settings                : cabac=0 / ref=2 / deblock=1:0:0 / analyse=0x1:0x111 / me=hex / subme=7 / psy=1 / psy_rd=1.00:0.00 / mixed_ref=1 / me_range=16 / chroma_me=1 / trellis=1 / 8x8dct=0 / cqm=0 / deadzone=21,11 / fast_pskip=1 / chroma_qp_offset=-2 / threads=4 / lookahead_threads=1 / sliced_threads=0 / nr=0 / decimate=1 / interlaced=0 / bluray_compat=0 / constrained_intra=0 / bframes=0 / weightp=0 / keyint=300 / keyint_min=25 / scenecut=40 / intra_refresh=0 / rc_lookahead=40 / rc=abr / mbtree=1 / bitrate=600 / ratetol=1.0 / qcomp=0.60 / qpmin=0 / qpmax=69 / qpstep=4 / ip_ratio=1.40 / aq=1:1.00

Audio
ID                               : 2
Format                           : AAC
Format/Info                      : Advanced Audio Codec
Format version                   : Version 4
Format profile                   : LC
Format settings, SBR             : No
Codec ID                         : 40
Duration                         : 1h 31mn
Bit rate mode                    : Constant
Bit rate                         : 128 Kbps
Channel(s)                       : 2 channels
Channel positions                : Front: L R
Sampling rate                    : 48.0 KHz
Stream size                      : 84.1 MiB (17%)
info [Профиль]  [ЛС] 
Показать сообщения:    
Ответить на тему

Текущее время: 04-Дек 22:30

Часовой пояс: GMT + 4



Вы не можете начинать темы
Вы не можете отвечать на сообщения
Вы не можете редактировать свои сообщения
Вы не можете удалять свои сообщения
Вы не можете голосовать в опросах
Вы не можете прикреплять файлы к сообщениям
Вы не можете скачивать файлы