Ошибка

Голодные сестры Миякава | Miyakawa-ke no Kuufuku [ONA][1-10 из 10][2013][комедия][BDRip][720p][Субтитры (JAP)]

Ответить на тему
 
Автор Сообщение

precentor frost

Пол: Пол:Муж

Стаж: 7 лет 8 месяцев

Сообщений: 669

Рейтинг

post 08-Янв-2014 12:44 0[+]

[Цитировать] 



Голодные сестры Миякава || Miyakawa-ke no Kuufuku || 宮河家の空腹


Страна:
Год выпуска: 2013 [29.04.2013 ~ 01.07.2013]
Жанр: комедия
Продолжительность: ONA 10 эп. ~5 мин

Перевод: субтитры

Режиссёр: Ямамото Ютака
Автор оригинала: Ёсимидзу Кагами
Студия:

И вновь приветствуем троекратным банзай театр Кагами Есимидзу. На этот раз нас ожидают с десяток пятиминутных эпизодов, рассказывающих о нелегкой доле семьи Миякава. Нелегкой из-за старшей сестры - отаку "во всю башню", тратящей к ужасу младшей сестры практически все средства на любимые додзинси и сопутствующие товары, что не может не сказаться на их пищевом рационе.


© howLAV, World Art


Информационные ссылки: AniDB || World Art || MAL

Качество: BDRip
Энкод: =^_^=
Тип видео: без хардсаба
Формат: mkv

Видео: x264 (Hi10p), 1280x720 (16:9), ~1500 Kbps, 23.976 fps
Аудио JAP: Vorbis, 16bit, 48kHz, ~320 Kbps, 2ch

Субтитры RUS: ASS, полные || (ext)
перевод: Sa4ko aka Kiyoso, тайм-код: DJATOM, оформление: CowboyFunk


Код:

Complete name                            : ..\Miyakawa-ke no Kuufuku [BD720]\[=^_^=] Miyakawa-ke no Kuufuku [BD720 x264 Vorbis].mkv
Format                                   : Matroska
Format version                           : Version 4 / Version 2
File size                                : 535 MiB
Duration                                 : 39mn 35s
Overall bit rate mode                    : Variable
Overall bit rate                         : 1 891 Kbps
Encoded date                             : UTC 2014-01-04 19:29:38
Writing application                      : mkvmerge v6.5.0 ('Isn't she lovely') built on Oct 20 2013 12:50:05
Writing library                          : libebml v1.3.0 + libmatroska v1.4.1

Video
ID                                       : 1
Format                                   : AVC
Format/Info                              : Advanced Video Codec
Format profile                           : High 10@L5.0
Format settings, CABAC                   : Yes
Format settings, ReFrames                : 6 frames
Codec ID                                 : V_MPEG4/ISO/AVC
Duration                                 : 39mn 35s
Bit rate                                 : 1 533 Kbps
Width                                    : 1 280 pixels
Height                                   : 720 pixels
Display aspect ratio                     : 16:9
Frame rate mode                          : Constant
Frame rate                               : 23.976 fps
Color space                              : YUV
Chroma subsampling                       : 4:2:0
Bit depth                                : 10 bits
Scan type                                : Progressive
Bits/(Pixel*Frame)                       : 0.069
Stream size                              : 434 MiB (81%)
Title                                    : Miyakawa-ke no Kuufuku ep.01-10
Writing library                          : x264 core 140 r2377 1ca7bb9
Encoding settings                        : cabac=1 / ref=6 / deblock=1:-3:-3 / analyse=0x3:0x113 / me=umh / subme=9 / psy=1 / psy_rd=0.90:0.00 / mixed_ref=1 / me_range=32 / chroma_me=1 / trellis=2 / 8x8dct=1 / cqm=0 / deadzone=21,11 / fast_pskip=0 / chroma_qp_offset=-2 / threads=9 / lookahead_threads=2 / sliced_threads=0 / nr=0 / decimate=0 / interlaced=0 / bluray_compat=0 / constrained_intra=0 / bframes=12 / b_pyramid=2 / b_adapt=2 / b_bias=0 / direct=1 / weightb=1 / open_gop=0 / weightp=2 / keyint=240 / keyint_min=24 / scenecut=40 / intra_refresh=0 / rc=crf / mbtree=0 / crf=16.0 / qcomp=0.75 / qpmin=0 / qpmax=81 / qpstep=4 / ip_ratio=1.40 / pb_ratio=1.30 / aq=1:0.85
Default                                  : Yes
Forced                                   : No
Color primaries                          : BT.709
Transfer characteristics                 : BT.709
Matrix coefficients                      : BT.709

Audio
ID                                       : 2
Format                                   : Vorbis
Format settings, Floor                   : 1
Codec ID                                 : A_VORBIS
Duration                                 : 39mn 35s
Bit rate mode                            : Variable
Bit rate                                 : 320 Kbps
Channel count                            : 2 channels
Sampling rate                            : 48.0 KHz
Compression mode                         : Lossy
Stream size                              : 90.6 MiB (17%)
Writing library                          : libVorbis (Schaufenugget) (20101101 (Schaufenugget))
Language                                 : Japanese
Default                                  : Yes
Forced                                   : No

Menu
00:00:00.000                             : :OP "KACHIGUMI" by Aya Hirano and Emiri Kato
00:01:32.259                             : :Episode 1
00:04:55.253                             : :Episode 2
00:07:34.287                             : :Episode 3
00:10:58.283                             : :Episode 4
00:14:48.304                             : :Episode 5
00:18:57.303                             : :Episode 6
00:23:00.296                             : :Episode 7
00:26:23.290                             : :Episode 8
00:30:24.281                             : :Episode 9
00:33:43.271                             : :Episode 10
00:38:05.283                             : :ED "MAKEGUMI" by Shimagata Maina and Kawasaki Makoto
info [Профиль]  [ЛС] 

teshigawara1

Пол: Пол:Муж

Стаж: 3 года 11 месяцев

Сообщений: 42

Россия
Рейтинг

post 08-Янв-2014 13:32 (спустя 48 минут) [-]1[+]

[Цитировать] 

Вот не понимаю я сериалы по 5 мин серия хоть убей
info [Профиль]  [ЛС] 

behomat

Пол: Пол:Муж

Стаж: 4 года 3 месяца

Сообщений: 19

Рейтинг

post 08-Янв-2014 13:53 (спустя 20 минут) [-]1[+]

[Цитировать] 

Цукаса и Миюки, вы ли это?!
info [Профиль]  [ЛС] 

Ritsu

Пол: Пол:Муж

Стаж: 5 лет 5 месяцев

Сообщений: 856

Австралия
Рейтинг

post 08-Янв-2014 15:16 (спустя 1 час 22 минуты) [-]-1[+]

[Цитировать] 

behomat писал(а):

ы
Только Миюки, НО МИЮКИ!

_________________
Флудите вместе с Рицу и будет вам счастье! ^__^

"...Зажжем рок в этой дыре!.."
info [Профиль]  [ЛС] 

Krontes

Пол: Пол:Муж

Стаж: 6 лет 9 месяцев

Сообщений: 281

Япония
Рейтинг

post 08-Янв-2014 15:56 (спустя 40 минут) [-]0[+]

[Цитировать] 

Глядя на скрины вспоминается сразу Лаки стар.
И это так и есть. Вот отсылка их на этом скрине , тут они выросли уже.
info [Профиль]  [ЛС] 

Ritsu

Пол: Пол:Муж

Стаж: 5 лет 5 месяцев

Сообщений: 856

Австралия
Рейтинг

post 08-Янв-2014 17:11 (спустя 1 час 14 минут) [-]0[+]

[Цитировать] 

Krontes
Жаль, что выросли уже.. Хотя, для меня они всегда будут теми веселыми няшами, которые обсуждают с какой стороны нужно есть шоколадный рогалик.

_________________
Флудите вместе с Рицу и будет вам счастье! ^__^

"...Зажжем рок в этой дыре!.."
info [Профиль]  [ЛС] 

Izumiro

Пол: Пол:Муж

Стаж: 3 года 1 месяц

Сообщений: 67

Россия
Рейтинг

post 09-Янв-2014 14:35 (спустя 21 час) [-]0[+]

[Цитировать] 

Цитата:

Krontes
Жаль, что выросли уже.. Хотя, для меня они всегда будут теми веселыми няшами, которые обсуждают с какой стороны нужно есть шоколадный рогалик.
Это точно) за два прихода осилил лаки стар) а сестры миякава очень доставляющее аниме. спасибо за раздачу)
info [Профиль]  [ЛС] 
Показать сообщения:    
Ответить на тему

Текущее время: 09-Дек 13:46

Часовой пояс: GMT + 4



Вы не можете начинать темы
Вы не можете отвечать на сообщения
Вы не можете редактировать свои сообщения
Вы не можете удалять свои сообщения
Вы не можете голосовать в опросах
Вы не можете прикреплять файлы к сообщениям
Вы не можете скачивать файлы