Ошибка

Риддик [Расширенная режиссёрская версия] / Riddick [UNRATED Director's Cut] (Дэвид Туи) [2013, фантастика, боевик, триллер, BDRip]

Ответить на тему
 
Автор Сообщение

Linuxoid

Пол: Пол:Муж

Стаж: 6 лет

Сообщений: 284

Украина
Рейтинг

post 02-Янв-2014 02:00 0[+]

[Цитировать] 


Риддик
Riddick

«Лучший способ отомстить - остаться в живых»


Год выпуска: 2013
Страны: США , Великобритания
Жанры: фантастика, боевик, триллер
Продолжительность: 02:06:49
Перевод: Профессиональный (дублированный)

Режиссер: Дэвид Туи
Сценарий: Дэвид Туи, Джим Уит, Кен Уит
Продюсер: Вин Дизель, Тед Филд, Камилль Браун, ...
Оператор: Дэвид Эггби
Композитор: Грэм Ревелл
Художник: Джозеф С. Немец III, Жан-Андре Каррьере, Симонетта Мариано, ...
Монтаж: Трэйси Адамс
В ролях:
      Вин Дизель / Vin Diesel (Riddick), Хорди Молья / Jordi Molla (Santana), Мэтью Нэйбл / Matthew Nable (Boss Johns), Кэти Сакхофф / Katee Sackhoff (Dahl), Дэйв Батиста / Dave Bautista (Diaz), Букем Вудбайн / Bokeem Woodbine (Moss)

Описание:
Преданный своими и брошенный умирать на пустынной планете, Риддик сражается с хищниками за жизнь и становится сильнее и опаснее себя прежнего. Открывшие на него охоту галактические наемники оказываются пешками в грандиозном плане отмщения. С врагами, возникающими на его пути тогда, когда это нужно самому Риддику, он начинает поход во имя мести, чтобы в конечном счете вернуться на родную Фурию и спасти ее от уничтожения.
Бюджет: $38 000 000
Сборы в США: $42 025 135
Сборы в мире: + $56 312 160 = $98 337 295 сборы
Сборы в России: $10 246 070
Зрители: Россия 1.42 млн , Франция 489.8 тыс. , Турция 329.3 тыс.
Премьера (мир): 4 сентября 2013, ...
Премьера (РФ): 12 сентября 2013, «Централ Партнершип»
Рейтинг MPAA: Лицам до 17 лет обязательно присутствие взрослого
Доп. информация: Расширенная режиссёрская версия длинне тетральной на ~ 8 минут. Полный перевод! Расширенные сцены озвучены студией "Paradox".

Качество: BDRip
Формат: MPEG-4
Видео кодек: AVC
Аудио кодек: AAC LC
Видео: 480x272 (16:9), 29.970 fps, AVC, 680 Kbps
Аудио #1: AAC LC, 128 Kbps, 48.0 KHz, 2 ch
General
Complete name : Riddick.2013.EXTENDED.BDRip.Rus.mp4
Format : MPEG-4
Format profile : Base Media
Codec ID : isom
File size : 740 MiB
Duration : 2h 6mn
Overall bit rate : 816 Kbps
Writing application : Lavf54.63.104

Video
ID : 1
Format : AVC
Format/Info : Advanced Video Codec
Format profile : Baseline@L2.1
Format settings, CABAC : No
Format settings, ReFrames : 1 frame
Codec ID : avc1
Codec ID/Info : Advanced Video Coding
Duration : 2h 6mn
Bit rate mode : Variable
Bit rate : 680 Kbps
Width : 480 pixels
Height : 272 pixels
Display aspect ratio : 16:9
Frame rate mode : Constant
Frame rate : 29.970 fps
Color space : YUV
Chroma subsampling : 4:2:0
Bit depth : 8 bits
Scan type : Progressive
Bits/(Pixel*Frame) : 0.174
Stream size : 618 MiB (83%)
Writing library : x264 core 129
Encoding settings : cabac=0 / ref=1 / deblock=1:0:0 / analyse=0x1:0x111 / me=hex / subme=6 / psy=1 / psy_rd=1.00:0.00 / mixed_ref=0 / me_range=16 / chroma_me=1 / trellis=0 / 8x8dct=0 / cqm=0 / deadzone=21,11 / fast_pskip=1 / chroma_qp_offset=-2 / threads=4 / lookahead_threads=1 / sliced_threads=0 / nr=0 / decimate=1 / interlaced=0 / bluray_compat=0 / constrained_intra=0 / bframes=0 / weightp=0 / keyint=250 / keyint_min=25 / scenecut=40 / intra_refresh=0 / rc_lookahead=40 / rc=abr / mbtree=1 / bitrate=680 / ratetol=1.0 / qcomp=0.60 / qpmin=10 / qpmax=51 / qpstep=4 / ip_ratio=1.41 / aq=1:1.00

Audio
ID : 2
Format : AAC
Format/Info : Advanced Audio Codec
Format version : Version 4
Format profile : LC
Format settings, SBR : No
Codec ID : 40
Duration : 2h 6mn
Bit rate mode : Constant
Bit rate : 128 Kbps
Channel(s) : 2 channels
Channel positions : Front: L R
Sampling rate : 48.0 KHz
Stream size : 116 MiB (16%)
· Вин Дизель согласился сыграть эпизодическую роль в фильме «Тройной форсаж: Токийский Дрифт» (2006) в обмен на права на франшизу «Риддика» от Universal Pictures. Это позволило ему заниматься производством «Риддика» самостоятельно.

· Производство фильма оказалось под угрозой срыва, когда была задержка в финансировании. В итоге Вин Дизель взял на себя финансирование фильма до тех пор, пока не разрешилась проблема с банковской ссудой.

· Первоначальное название сценария было — «Хроники Риддика: Преследование мертвеца» (The Chronicles of Riddick: Dead Man Stalking).

· Кери Хилсон проходила прослушивание на роль Дали. Роль в итоге отошла Кэти Сакхофф, но Дэвид Туи был настолько впечатлен харизмой Хилсон, что написал небольшую роль специально для нее.

· Персонаж Мэтью Нэйбла — Босс Джонс — это отец Уильяма Дж. Джонса, которого в фильме «Черная дыра» (1999) сыграл Коул Хаузер. В реальной жизни Нэйбл всего на три года старше Хаузера.

info [Профиль]  [ЛС] 
Показать сообщения:    
Ответить на тему

Текущее время: 11-Дек 11:59

Часовой пояс: GMT + 4



Вы не можете начинать темы
Вы не можете отвечать на сообщения
Вы не можете редактировать свои сообщения
Вы не можете удалять свои сообщения
Вы не можете голосовать в опросах
Вы не можете прикреплять файлы к сообщениям
Вы не можете скачивать файлы