Ошибка

Бойфренд из будущего / About Time (Ричард Кёртис) [2013, фантастика, драма, комедия, BDRip]

Ответить на тему
 
Автор Сообщение

Linuxoid

Пол: Пол:Муж

Стаж: 6 лет

Сообщений: 284

Украина
Рейтинг

post 02-Янв-2014 01:39 0[+]

[Цитировать] 

Бойфренд из будущего / About Time
«A new funny film about love. With a bit of time travel»

Год выпуска: 2013
Страна: Великобритания
Жанр: фантастика, драма, комедия
Продолжительность: 02:03:24
Перевод: Профессиональный (дублированный)
Режиссер: Ричард Кёртис
Сценарий: Ричард Кёртис
Продюсер: Тим Беван, Эрик Феллнер
Оператор: Джон Галесериан
Композитор: Ник Лэйрд-Клоус
Художник: Джон Пол Келли, Дэвид Хиндл, Сэм Стоукс, ...
Монтаж: Марк Дэй
В ролях: Донал Глисон / Domhnall Gleeson (Tim), Рэйчел МакАдамс / Rachel McAdams (Mary), Билл Найи / Bill Nighy (Dad), Том Холландер / Tom Hollander (Harry), Марго Робби / Margot Robbie (Charlotte), Лидия Уилсон / Lydia Wilson (Kit Kat)
Описание: Тиму повезло — он молодой, симпатичный, многообещающий адвокат, а еще он… умеет перемещаться во времени. И чтобы очаровать девушку своей мечты, он готов повторять первое свидание вновь и вновь. Воистину, любовь с первого взгляда не всегда выходит с первого раза…
Сборы в США: $15 322 921
Сборы в мире: + $64 900 000 = $80 222 921 сборы
Сборы в России: $1 096 215
Зрители: Корея Южная 2.92 млн , Испания 382.7 тыс. , Мексика 193.2 тыс.
Премьера (мир): 27 июня 2013, ...
Премьера (РФ): 10 октября 2013, «UPI»
Релиз на DVD: 30 января 2014, «Двадцатый Век Фокс СНГ», ...
Релиз на Blu-Ray: 30 января 2014, «Двадцатый Век Фокс СНГ», ...
Рейтинг MPAA: Лицам до 17 лет обязательно присутствие взрослого



Качество: BDRip
Формат: MPEG-4
Видео кодек: AVC
Аудио кодеk: AAC LC
Видео: 480x272 (16:9), 29.970 fps, AVC, 680 Kbps
Аудио: Аудио #1: AAC LC, 128 Kbps, 48.0 KHz, 2 ch

Код:

General
Complete name                    : About.Time.2013.BDRip.Rus.mp4
Format                           : MPEG-4
Format profile                   : Base Media
Codec ID                         : isom
File size                        : 721 MiB
Duration                         : 2h 3mn
Overall bit rate                 : 817 Kbps
Writing application              : Lavf54.63.104

Video
ID                               : 1
Format                           : AVC
Format/Info                      : Advanced Video Codec
Format profile                   : Baseline@L2.1
Format settings, CABAC           : No
Format settings, ReFrames        : 1 frame
Codec ID                         : avc1
Codec ID/Info                    : Advanced Video Coding
Duration                         : 2h 3mn
Bit rate mode                    : Variable
Bit rate                         : 680 Kbps
Width                            : 480 pixels
Height                           : 272 pixels
Display aspect ratio             : 16:9
Frame rate mode                  : Constant
Frame rate                       : 29.970 fps
Color space                      : YUV
Chroma subsampling               : 4:2:0
Bit depth                        : 8 bits
Scan type                        : Progressive
Bits/(Pixel*Frame)               : 0.174
Stream size                      : 602 MiB (84%)
Writing library                  : x264 core 129
Encoding settings                : cabac=0 / ref=1 / deblock=1:0:0 / analyse=0x1:0x111 / me=hex / subme=6 / psy=1 / psy_rd=1.00:0.00 / mixed_ref=0 / me_range=16 / chroma_me=1 / trellis=0 / 8x8dct=0 / cqm=0 / deadzone=21,11 / fast_pskip=1 / chroma_qp_offset=-2 / threads=4 / lookahead_threads=1 / sliced_threads=0 / nr=0 / decimate=1 / interlaced=0 / bluray_compat=0 / constrained_intra=0 / bframes=0 / weightp=0 / keyint=250 / keyint_min=25 / scenecut=40 / intra_refresh=0 / rc_lookahead=40 / rc=abr / mbtree=1 / bitrate=680 / ratetol=1.0 / qcomp=0.60 / qpmin=10 / qpmax=51 / qpstep=4 / ip_ratio=1.41 / aq=1:1.00

Audio
ID                               : 2
Format                           : AAC
Format/Info                      : Advanced Audio Codec
Format version                   : Version 4
Format profile                   : LC
Format settings, SBR             : No
Codec ID                         : 40
Duration                         : 2h 3mn
Bit rate mode                    : Constant
Bit rate                         : 128 Kbps
Channel(s)                       : 2 channels
Channel positions                : Front: L R
Sampling rate                    : 48.0 KHz
Stream size                      : 113 MiB (16%)
· Съёмки фильма проходили в Лондоне и Корнуолле.

· В конце фильма Рори читает книгу под названием «Мусор» (Trash). Следующий фильм Ричарда Кёртиса, в котором он является сценаристом, — это «Мусор» (2014).

· Первоначально на роль Мэри взяли Зои Дешанель, но она покинула проект из-за несогласованности расписаний съемок, и в итоге роль отошла Рэйчел МакАдамс.

· Это не первый фильм, в котором Рэйчел МакАдамс играет роль девушки влюбленной в главного героя — путешественника во времени. Подобную роль она уже исполняла в фильме «Жена путешественника во времени» (2008).

          
info [Профиль]  [ЛС] 

ZashikiWarashi

Пол: Пол:Муж

Стаж: 4 года 1 месяц

Сообщений: 461

Предупреждений: 1

Россия
Рейтинг

post 17-Янв-2014 20:36 (спустя 15 дней) [-]0[+]

[Цитировать] 

Ну и как фильм ?:3
info [Профиль]  [ЛС] 
Показать сообщения:    
Ответить на тему

Текущее время: 08-Дек 02:19

Часовой пояс: GMT + 4



Вы не можете начинать темы
Вы не можете отвечать на сообщения
Вы не можете редактировать свои сообщения
Вы не можете удалять свои сообщения
Вы не можете голосовать в опросах
Вы не можете прикреплять файлы к сообщениям
Вы не можете скачивать файлы