Ошибка

Новогодний фейерверк в Дубае и Лондоне [2013-2014 г., Фейерверк, HDTV 1080i]

Ответить на тему
 
Автор Сообщение

CooL

Пол: Пол:Муж

Стаж: 6 лет 9 месяцев

Сообщений: 1235

СССР
Рейтинг

post 02-Янв-2014 00:58 1[+]

[Цитировать] 

Новогодний фейерверк
Дубай
Лондон

Год выпуска: 2013-2014

Происхождение : ОАЭ, Великобритания
Продолжительность: 00:09:10 + 00:16:22
Описание: Новогодний фейерверк в Дубае попал в книгу рекордов Гиннеса как самый масштабный и продолжительный в мире.

Продолжительность салюта составила 6 минут. Пиротехники устроили его в центре города, рядом с самым высоким зданием мира Бурдж Халифа. Салют состоял из 450 тысяч. Залпы производились из 400 точек, расположенных на протяжении 100 километров вдоль береговой линии Дубая и очертаний искусственных островов Palm Jumeirah и The World Islands.
Один из залпов высветил на небе флаг ОАЭ размером 225 на 130 метров. Ожидалось, что это станет крупнейшим в истории пиротехническим изображением национального флага. Также над зрителями пролетел и взмыл в небо огромный сокол из огней.
Стоимость салюта составила порядка 6 млн долларов. Помимо залпов шоу, сопровождали музыка и различные спецэффекты. За ходом программы следили сразу 100 компьютеров, при этом задействовано было одновременно 400 площадок.

Происхождение видео: HDTV 1080i
Формат: TS
Видео кодек: AVC
Аудио кодек: MP2 | AC3

Видео :MPEG-4 AVC, 1920x1080 (16:9), 25.000 fps, 7809 Kbps (Dubai), 9743 Kbps (London)
Аудио : 2 ch, 48KHz, Mp2 128 Kbps (Dubai), AC3 192 Kbps (London)
Видео
Идентификатор : 5400 (0x1518)
Идентификатор меню : 1 (0x1)
Формат : AVC
Формат/Информация : Advanced Video Codec
Профиль формата : High@L4.0
Параметр CABAC формата : Да
Параметр ReFrames формата : 4 кадра
Параметр GOP формата : M=8, N=24
Идентификатор кодека : 27
Продолжительность : 16 м.
Битрейт : 9068 Кбит/сек
Ширина : 1920 пикселей
Высота : 1080 пикселей
Соотношение сторон : 16:9
Частота кадров : 25,000 кадров/сек
Стандарт вещания : Component
Цветовое пространство : YUV
Субдискретизация насыщенности : 4:2:0
Битовая глубина : 8 бит
Тип развёртки : MBAFF
Бит/(Пиксели*Кадры) : 0.175
Размер потока : 1,04 Гбайт (93%)
Основные цвета : BT.709
Характеристики трансфера : BT.709
Коэффициенты матрицы : BT.709

Аудио
Идентификатор : 5401 (0x1519)
Идентификатор меню : 1 (0x1)
Формат : AC-3
Формат/Информация : Audio Coding 3
Расширение режима : CM (complete main)
Параметр Endianness формата : Big
Идентификатор кодека : 6
Продолжительность : 16 м.
Вид битрейта : Постоянный
Битрейт : 192 Кбит/сек
Каналы : 2 канала
Расположение каналов : Front: L R
Частота : 48,0 КГц
Битовая глубина : 16 бит
Метод сжатия : С потерями
Размер потока : 22,5 Мбайт (2%)
Язык : English

Текст
Идентификатор : 5404 (0x151C)
Идентификатор меню : 1 (0x1)
Формат : DVB Subtitle
Идентификатор кодека : 6
Продолжительность : 16 м.
Задержка видео : 284 мс.
Язык : English
Видео
Идентификатор : 101 (0x65)
Идентификатор меню : 1 (0x1)
Формат : AVC
Формат/Информация : Advanced Video Codec
Профиль формата : High@L4.1
Параметр CABAC формата : Да
Параметр ReFrames формата : 4 кадра
Параметр GOP формата : M=4, N=24
Идентификатор кодека : 27
Продолжительность : 9 м. 10 с.
Битрейт : 7809 Кбит/сек
Ширина : 1920 пикселей
Высота : 1080 пикселей
Соотношение сторон : 16:9
Частота кадров : 25,000 кадров/сек
Цветовое пространство : YUV
Субдискретизация насыщенности : 4:2:0
Битовая глубина : 8 бит
Тип развёртки : Прогрессивная
Бит/(Пиксели*Кадры) : 0.151
Размер потока : 513 Мбайт (94%)
Основные цвета : BT.709
Характеристики трансфера : BT.709
Коэффициенты матрицы : BT.709

Аудио
Идентификатор : 256 (0x100)
Идентификатор меню : 1 (0x1)
Формат : MPEG Audio
Версия формата : Version 1
Профиль формата : Layer 2
Идентификатор кодека : 3
Продолжительность : 9 м. 10 с.
Вид битрейта : Постоянный
Битрейт : 128 Кбит/сек
Каналы : 2 канала
Частота : 48,0 КГц
Метод сжатия : С потерями
Задержка видео : -40 мс.
Размер потока : 8,41 Мбайт (2%)
Язык : English

info [Профиль]  [ЛС] 

kris-mur

Пол: Пол:Жен

Стаж: 7 лет 3 месяца

Сообщений: 2

Рейтинг

post 02-Янв-2014 01:23 (спустя 24 минуты) [-]0[+]

[Цитировать] 

Классно спасибо!С Новым Годом!!!
info [Профиль]  [ЛС] 

Sm1r

Пол: Пол:Муж

Стаж: 5 лет

Сообщений: 123

Россия
Рейтинг

post 02-Янв-2014 12:44 (спустя 11 часов) [-]0[+]

[Цитировать] 

Спасибо, а из Сиднея и Шанхая не будет?

_________________
К важным делам следует относиться легко.
К несущественным делам следует относиться серьезно.
info [Профиль]  [ЛС] 

AL13NTX

Пол: Пол:Муж

Стаж: 6 лет 8 месяцев

Сообщений: 90

Россия
Рейтинг

post 02-Янв-2014 13:41 (спустя 56 минут) [-]0[+]

[Цитировать] 

Лондон как всегда лучший, а Дубай уныло, просто башню нашпиговали, как в Тайбэе

_________________
info [Профиль]  [ЛС] 

Pelops

Пол: Пол:Муж

Стаж: 6 лет 2 месяца

Сообщений: 27

Казахстан
Рейтинг

post 02-Янв-2014 14:50 (спустя 1 час 9 минут) [-]0[+]

[Цитировать] 

Лучше всего в Нью-Йорке ,но к сожалению тут его нет.
info [Профиль]  [ЛС] 

ERMAK32

Пол: Пол:Муж

Стаж: 6 лет 11 месяцев

Сообщений: 34

Россия
Рейтинг

post 02-Янв-2014 17:12 (спустя 2 часа 22 минуты) [-]0[+]

[Цитировать] 

а еще из других городов будет?
info [Профиль]  [ЛС] 

CooL

Пол: Пол:Муж

Стаж: 6 лет 9 месяцев

Сообщений: 1235

СССР
Рейтинг

post 02-Янв-2014 20:01 (спустя 2 часа 49 минут) [-]0[+]

[Цитировать] 

ERMAK32 писал(а):

а еще из других городов будет?
видимо нет
info [Профиль]  [ЛС] 

Pray

Пол: Пол:Муж

Стаж: 5 лет 4 месяца

Сообщений: 878

Предупреждений: 1

Украина
Рейтинг

post 02-Янв-2014 21:12 (спустя 1 час 10 минут) [-]-1[+]

[Цитировать] 

Вроде в Лондоне минут 10 шёл салют(на видео видно по часам башни, начали в полночь, а закончили в 10 минут 1-го)), а в Дубае 6 минут, а в книгу РГ попал Дубаевский, странно.

Но всё равно, оба салюта хороши!

_________________
MSI Z77A-G43 / Intel Core i5 3570K 3.4 ГГц / Gigabyte GeForce GTX 770 OC 4 Гб Rev. 2.0 / 8 Гб ОЗУ
Steam
info [Профиль]  [ЛС] 
Показать сообщения:    
Ответить на тему

Текущее время: 05-Дек 14:34

Часовой пояс: GMT + 4



Вы не можете начинать темы
Вы не можете отвечать на сообщения
Вы не можете редактировать свои сообщения
Вы не можете удалять свои сообщения
Вы не можете голосовать в опросах
Вы не можете прикреплять файлы к сообщениям
Вы не можете скачивать файлы