Ошибка

Интерны (Новогодний выпуск) (Максим Пежемский) [2013, комедия, WEB-DLRip]

Ответить на тему
 
Автор Сообщение

Linuxoid

Пол: Пол:Муж

Стаж: 6 лет

Сообщений: 284

Украина
Рейтинг

post 31-Дек-2013 19:49 0[+]

[Цитировать] 

Интерны
«Инородное тело в организме медицины»

Год выпуска: 2013
Страна: Россия
Жанр: комедия
Продолжительность: 00:24:50
Перевод: Оригинал
Режиссер: Максим Пежемский, Заур Болотаев, Милан Килибарда, ...
Сценарий: Александр Кагарманов, Вячеслав Дусмухаметов, Сергей Кулыбышев, ...
Продюсер: Артур Джанибекян, Александр Дулерайн, Вячеслав Дусмухаметов, ...
Оператор: Заур Болотаев, Григорий Володин, Юрий Коробейников
Композитор: Mr. Bocha, Максим Тимошенко, Promuse
Художник: Павел Лычкин, Андрей Ивакин, Александра Андреева, ...
Монтаж: Олег Малыгин
В ролях: Иван Охлобыстин (Андрей Евгеньевич Быков), Илья Глинников (Глеб Романенко), Кристина Асмус (Варвара Черноус), Александр Ильин мл. (Семен Лобанов), Вадим Демчог (венеролог Иван Натанович Купитман), Светлана Камынина (Анастасия Кисегач)
Описание: Главные герои ситкома — четыре интерна. Они все время попадают в идиотские ситуации, а их руководитель доктор Быков с удовольствием за этим наблюдает. Доводить интернов до белого каления Быкову помогает друг доктор Купитман и мешает главврач больницы Анастасия Кисегач.
Премьера (мир): 31 августа 2010, ...
Премьера (РФ): 29 марта 2010
Релиз на DVD: 15 мая 2010, «Флагман-Трейд», ...



Качество: WEB-DLRip
Формат: MPEG-4
Видео кодек: AVC
Аудио кодеk: AAC LC
Видео: 480x208 (2.35:1), 29.970 fps, AVC, 640 Kbps
Аудио: Аудио #1: AAC LC, 128 Kbps, 48.0 KHz, 2 ch

Код:

General
Complete name                    : interny.vovogodniy.vupysk.WEB-DLRip.rus.mp4
Format                           : MPEG-4
Format profile                   : Base Media
Codec ID                         : isom
File size                        : 139 MiB
Duration                         : 24mn 50s
Overall bit rate                 : 781 Kbps
Writing application              : Lavf54.63.104

Video
ID                               : 1
Format                           : AVC
Format/Info                      : Advanced Video Codec
Format profile                   : Baseline@L2.0
Format settings, CABAC           : No
Format settings, ReFrames        : 1 frame
Codec ID                         : avc1
Codec ID/Info                    : Advanced Video Coding
Duration                         : 24mn 50s
Bit rate mode                    : Variable
Bit rate                         : 640 Kbps
Width                            : 480 pixels
Height                           : 208 pixels
Display aspect ratio             : 2.35:1
Frame rate mode                  : Constant
Frame rate                       : 29.970 fps
Color space                      : YUV
Chroma subsampling               : 4:2:0
Bit depth                        : 8 bits
Scan type                        : Progressive
Bits/(Pixel*Frame)               : 0.214
Stream size                      : 115 MiB (83%)
Writing library                  : x264 core 129
Encoding settings                : cabac=0 / ref=1 / deblock=1:0:0 / analyse=0x1:0x111 / me=hex / subme=6 / psy=1 / psy_rd=1.00:0.00 / mixed_ref=0 / me_range=16 / chroma_me=1 / trellis=0 / 8x8dct=0 / cqm=0 / deadzone=21,11 / fast_pskip=1 / chroma_qp_offset=-2 / threads=4 / lookahead_threads=1 / sliced_threads=0 / nr=0 / decimate=1 / interlaced=0 / bluray_compat=0 / constrained_intra=0 / bframes=0 / weightp=0 / keyint=250 / keyint_min=25 / scenecut=40 / intra_refresh=0 / rc_lookahead=40 / rc=abr / mbtree=1 / bitrate=640 / ratetol=1.0 / qcomp=0.60 / qpmin=10 / qpmax=51 / qpstep=4 / ip_ratio=1.41 / aq=1:1.00

Audio
ID                               : 2
Format                           : AAC
Format/Info                      : Advanced Audio Codec
Format version                   : Version 4
Format profile                   : LC
Format settings, SBR             : No
Codec ID                         : 40
Duration                         : 24mn 50s
Bit rate mode                    : Constant
Bit rate                         : 128 Kbps
Channel(s)                       : 2 channels
Channel positions                : Front: L R
Sampling rate                    : 48.0 KHz
Stream size                      : 22.7 MiB (16%)
· Дмитрий Шаракоис в сериале носит очки, принадлежавшие его покойному дедушке. Именно в них он пришёл на пробы и был в таком виде утверждён на роль интерна Левина. Но в очках линзы без диоптрий, так как у самого актёра прекрасное зрение.

· В 56-ой серии Левин говорит, что ему предложили стажировку в США в больнице «Принстон-Плейнсборо». В данной больнице работает Доктор Хаус из одноименного сериала.

· Съёмки проводятся в специально построенном для сериала павильоне на территории бывшего завода. Лекарства и медицинское оборудование в кадре — настоящие, оборудование взято в аренду или списанное.

· Почти все сюжеты взяты из реальной врачебной практики.

· Отец Ивана Охлобыстина был главврачом.

· Коньяк в кабинете доктора Купитмана — настоящий. Но во время съёмок актёр пьёт подкрашенный чай вместо алкоголя. Поэтому в некоторых сценах можно увидеть запотевшую от горячего чая рюмку.

· Туалет, входящий в состав декораций больницы, бутафорский, к нему не подведена канализация. Поэтому рядом с ним висит предупреждение членам съёмочной группы, чтобы никто им не вздумал воспользоваться.

· Съемки одной серии занимают 4 дня.

· На роль Вари Черноус пробовалась Мария Пирогова, но отказалась от роли в связи с большой загруженностью по учёбе.

info [Профиль]  [ЛС] 
Показать сообщения:    
Ответить на тему

Текущее время: 05-Дек 16:38

Часовой пояс: GMT + 4



Вы не можете начинать темы
Вы не можете отвечать на сообщения
Вы не можете редактировать свои сообщения
Вы не можете удалять свои сообщения
Вы не можете голосовать в опросах
Вы не можете прикреплять файлы к сообщениям
Вы не можете скачивать файлы