Ошибка

(Folk) Frank Turner - Discography - 2007-2015, FLAC (tracks+.cue), lossless

Ответить на тему
 
Автор Сообщение

The Royal

Пол: Пол:Муж

Стаж: 6 лет 11 месяцев

Сообщений: 652

Россия
Рейтинг

post 20-Дек-2013 16:33 0[+]

[Цитировать] 

pic="http://s001.youpic.su/pictures/1387486800/9f5fcefba6bbc82316b2f3ff29167794.png"
Frank Turner

Жанр: Folk
Год издания данного носителя: 2007-2015
Аудио кодек: FLAC
Тип рипа: tracks+.cue
Битрейт аудио: lossless
Продолжительность: 05:58:43
Полиграфия: Отсутствует

Цитата:

Фрэнк Тёрнер – британский музыкант, экс-вокалист пост-хардкор группы Million Dead. После ухода из группы в 2005 начал сольную карьеру, и к настоящему времени уже записал и выпустил четыре альбома, четыре ЕР и два сборника, а также множество синглов и демо-записей.

Первую сольную работу, ЕР Campfire Punlrock, Фрэнк записал в 2006 году, после распада Million Dead. После продолжительного тура, Тёрнер был приглашён на BВС Radio 1, а затем, в январе 2007го года выпустил первую долгоиграющую пластинку Sleep Is For The Week. Далее вновь последовали туры, с такими известными исполнителями как yourcodenameis:milo и Biffy Clyro, и запись очередного ЕР The Real Damage, а за ним – и второго альбома Love Ire & Song. Затем снова-таки последовала череда туров, в том числе с The Gaslight Anthem, и выпуск компиляции The First Three Years, ставшей эдаким отчётом о первом этапе творчества Фрэнка.

01. The Real Damage (3:35)
02. Vital Signs (3:39)
03. Romantic Fatigue (2:58)
04. A Decent Cup Of Tea (3:09)
05. Father's Day (4:50)
06. Worse Things Happen At Sea (3:44)
07. My Kingdom For A Horse (4:52)
08. Back In The Day (2:07)
09. Once We Were Anarchists (3:51)
10. Wisdom Teeth (4:17)
11. The Ladies Of London Town (4:06)
12. Must Try Harder (3:35)
13. The Ballad Of Me And My Friends (2:33)
01 -===- H:\Music (lossless)\Frank Turner\2007 - Sleep Is For The Week\01 - The Real Damage.flac 
Extracted successfully
Conclusion: this track is CDDA with probability 100%
Tempfile successfully deleted.

02 -===- H:\Music (lossless)\Frank Turner\2007 - Sleep Is For The Week\02 - Vital Signs.flac
Extracted successfully
Conclusion: this track is CDDA with probability 100%
Tempfile successfully deleted.

03 -===- H:\Music (lossless)\Frank Turner\2007 - Sleep Is For The Week\03 - Romantic Fatigue.flac
Extracted successfully
Conclusion: this track is CDDA with probability 100%
Tempfile successfully deleted.

04 -===- H:\Music (lossless)\Frank Turner\2007 - Sleep Is For The Week\04 - A Decent Cup Of Tea.flac
Extracted successfully
Conclusion: this track is CDDA with probability 100%
Tempfile successfully deleted.

05 -===- H:\Music (lossless)\Frank Turner\2007 - Sleep Is For The Week\05 - Father's Day.flac
Extracted successfully
Conclusion: this track is CDDA with probability 100%
Tempfile successfully deleted.

06 -===- H:\Music (lossless)\Frank Turner\2007 - Sleep Is For The Week\06 - Worse Things Happen At Sea.flac
Extracted successfully
Conclusion: this track is CDDA with probability 100%
Tempfile successfully deleted.

07 -===- H:\Music (lossless)\Frank Turner\2007 - Sleep Is For The Week\07 - My Kingdom For A Horse.flac
Extracted successfully
Conclusion: this track is CDDA with probability 100%
Tempfile successfully deleted.

08 -===- H:\Music (lossless)\Frank Turner\2007 - Sleep Is For The Week\08 - Back In The Day.flac
Extracted successfully
Conclusion: this track is CDDA with probability 100%
Tempfile successfully deleted.

09 -===- H:\Music (lossless)\Frank Turner\2007 - Sleep Is For The Week\09 - Once We Were Anarchists.flac
Extracted successfully
Conclusion: this track is CDDA with probability 100%
Tempfile successfully deleted.

10 -===- H:\Music (lossless)\Frank Turner\2007 - Sleep Is For The Week\10 - Wisdom Teeth.flac
Extracted successfully
Conclusion: this track is CDDA with probability 100%
Tempfile successfully deleted.

11 -===- H:\Music (lossless)\Frank Turner\2007 - Sleep Is For The Week\11 - The Ladies Of London Town.flac
Extracted successfully
Conclusion: this track is CDDA with probability 100%
Tempfile successfully deleted.

12 -===- H:\Music (lossless)\Frank Turner\2007 - Sleep Is For The Week\12 - Must Try Harder.flac
Extracted successfully
Conclusion: this track is CDDA with probability 100%
Tempfile successfully deleted.

13 -===- H:\Music (lossless)\Frank Turner\2007 - Sleep Is For The Week\13 - The Ballad Of Me And My Friends.flac
Extracted successfully
Conclusion: this track is CDDA with probability 100%
Tempfile successfully deleted.
REM COMMENT "CUETools generated dummy CUE sheet" 
FILE "01 - The Real Damage.flac" WAVE
TRACK 01 AUDIO
INDEX 01 00:00:00
FILE "02 - Vital Signs.flac" WAVE
TRACK 02 AUDIO
INDEX 01 00:00:00
FILE "03 - Romantic Fatigue.flac" WAVE
TRACK 03 AUDIO
INDEX 01 00:00:00
FILE "04 - A Decent Cup Of Tea.flac" WAVE
TRACK 04 AUDIO
INDEX 01 00:00:00
FILE "05 - Father's Day.flac" WAVE
TRACK 05 AUDIO
INDEX 01 00:00:00
FILE "06 - Worse Things Happen At Sea.flac" WAVE
TRACK 06 AUDIO
INDEX 01 00:00:00
FILE "07 - My Kingdom For A Horse.flac" WAVE
TRACK 07 AUDIO
INDEX 01 00:00:00
FILE "08 - Back In The Day.flac" WAVE
TRACK 08 AUDIO
INDEX 01 00:00:00
FILE "09 - Once We Were Anarchists.flac" WAVE
TRACK 09 AUDIO
INDEX 01 00:00:00
FILE "10 - Wisdom Teeth.flac" WAVE
TRACK 10 AUDIO
INDEX 01 00:00:00
FILE "11 - The Ladies Of London Town.flac" WAVE
TRACK 11 AUDIO
INDEX 01 00:00:00
FILE "12 - Must Try Harder.flac" WAVE
TRACK 12 AUDIO
INDEX 01 00:00:00
FILE "13 - The Ballad Of Me And My Friends.flac" WAVE
TRACK 13 AUDIO
INDEX 01 00:00:00
01. I Knew Prufrock Before He Got Famous (3:13)
02. Reasons Not To Be An Idiot (3:49)
03. Photosynthesis (4:12)
04. Substitute (2:46)
05. Better Half (5:02)
06. Love Ire & Song (4:21)
07. Imperfect Tense (2:37)
08. To Take You Home (3:49)
09. Long Live The Queen (3:27)
10. A Love Worth Keeping (4:17)
11. St Christopher Is Coming Home (3:10)
12. Jet Lag (5:08)
13. Thatcher Fucked the Kids (3:21)
14. The Ballad of Me and My Friends (2:33)
14 -===- H:\Music (lossless)\Frank Turner\2008 - Love Ire & Song\01 - I Knew Prufrock Before He Got Famous.flac 
Extracted successfully
Conclusion: this track is CDDA with probability 99%
Tempfile successfully deleted.

15 -===- H:\Music (lossless)\Frank Turner\2008 - Love Ire & Song\02 - Reasons Not To Be An Idiot.flac
Extracted successfully
Conclusion: this track is CDDA with probability 100%
Tempfile successfully deleted.

16 -===- H:\Music (lossless)\Frank Turner\2008 - Love Ire & Song\03 - Photosynthesis.flac
Extracted successfully
Conclusion: this track is CDDA with probability 100%
Tempfile successfully deleted.

17 -===- H:\Music (lossless)\Frank Turner\2008 - Love Ire & Song\04 - Substitute.flac
Extracted successfully
Conclusion: this track is CDDA with probability 100%
Tempfile successfully deleted.

18 -===- H:\Music (lossless)\Frank Turner\2008 - Love Ire & Song\05 - Better Half.flac
Extracted successfully
Conclusion: this track is CDDA with probability 100%
Tempfile successfully deleted.

19 -===- H:\Music (lossless)\Frank Turner\2008 - Love Ire & Song\06 - Love Ire & Song.flac
Extracted successfully
Conclusion: this track is CDDA with probability 100%
Tempfile successfully deleted.

20 -===- H:\Music (lossless)\Frank Turner\2008 - Love Ire & Song\07 - Imperfect Tense.flac
Extracted successfully
Conclusion: this track is CDDA with probability 100%
Tempfile successfully deleted.

21 -===- H:\Music (lossless)\Frank Turner\2008 - Love Ire & Song\08 - To Take You Home.flac
Extracted successfully
Conclusion: this track is CDDA with probability 99%
Tempfile successfully deleted.

22 -===- H:\Music (lossless)\Frank Turner\2008 - Love Ire & Song\09 - Long Live The Queen.flac
Extracted successfully
Conclusion: this track is CDDA with probability 100%
Tempfile successfully deleted.

23 -===- H:\Music (lossless)\Frank Turner\2008 - Love Ire & Song\10 - A Love Worth Keeping.flac
Extracted successfully
Conclusion: this track is CDDA with probability 100%
Tempfile successfully deleted.

24 -===- H:\Music (lossless)\Frank Turner\2008 - Love Ire & Song\11 - St Christopher Is Coming Home.flac
Extracted successfully
Conclusion: this track is CDDA with probability 100%
Tempfile successfully deleted.

25 -===- H:\Music (lossless)\Frank Turner\2008 - Love Ire & Song\12 - Jet Lag.flac
Extracted successfully
Conclusion: this track is CDDA with probability 62%
Tempfile successfully deleted.

26 -===- H:\Music (lossless)\Frank Turner\2008 - Love Ire & Song\13 - Thatcher Fucked the Kids.flac
Extracted successfully
Conclusion: this track is CDDA with probability 100%
Tempfile successfully deleted.

27 -===- H:\Music (lossless)\Frank Turner\2008 - Love Ire & Song\14 - The Ballad of Me and My Friends.flac
Extracted successfully
Conclusion: this track is CDDA with probability 100%
Tempfile successfully deleted.
REM COMMENT "CUETools generated dummy CUE sheet" 
FILE "01 - I Knew Prufrock Before He Got Famous.flac" WAVE
TRACK 01 AUDIO
INDEX 01 00:00:00
FILE "02 - Reasons Not To Be An Idiot.flac" WAVE
TRACK 02 AUDIO
INDEX 01 00:00:00
FILE "03 - Photosynthesis.flac" WAVE
TRACK 03 AUDIO
INDEX 01 00:00:00
FILE "04 - Substitute.flac" WAVE
TRACK 04 AUDIO
INDEX 01 00:00:00
FILE "05 - Better Half.flac" WAVE
TRACK 05 AUDIO
INDEX 01 00:00:00
FILE "06 - Love Ire & Song.flac" WAVE
TRACK 06 AUDIO
INDEX 01 00:00:00
FILE "07 - Imperfect Tense.flac" WAVE
TRACK 07 AUDIO
INDEX 01 00:00:00
FILE "08 - To Take You Home.flac" WAVE
TRACK 08 AUDIO
INDEX 01 00:00:00
FILE "09 - Long Live The Queen.flac" WAVE
TRACK 09 AUDIO
INDEX 01 00:00:00
FILE "10 - A Love Worth Keeping.flac" WAVE
TRACK 10 AUDIO
INDEX 01 00:00:00
FILE "11 - St Christopher Is Coming Home.flac" WAVE
TRACK 11 AUDIO
INDEX 01 00:00:00
FILE "12 - Jet Lag.flac" WAVE
TRACK 12 AUDIO
INDEX 01 00:00:00
FILE "13 - Thatcher Fucked the Kids.flac" WAVE
TRACK 13 AUDIO
INDEX 01 00:00:00
FILE "14 - The Ballad of Me and My Friends.flac" WAVE
TRACK 14 AUDIO
INDEX 01 00:00:00
01. Live Fast Die Old (4:16)
02. Try This At Home (1:53)
03. Dan's Song (1:57)
04. Poetry Of The Deed (3:25)
05. Isabel (4:06)
06. The Fastest Way Back Home (3:26)
07. Sons Of Liberty (4:28)
08. The Road (3:58)
09. Faithful Son (3:35)
10. Richard Divine (3:49)
11. Sunday Nights (4:04)
12. Our Lady Of The Campfires (3:59)
13. Journey Of The Magi (4:16)
28 -===- H:\Music (lossless)\Frank Turner\2009 - Poetry of the Deed\01 - Live Fast Die Old.flac 
Extracted successfully
Conclusion: this track is CDDA with probability 100%
Tempfile successfully deleted.

29 -===- H:\Music (lossless)\Frank Turner\2009 - Poetry of the Deed\02 - Try This At Home.flac
Extracted successfully
Conclusion: this track is CDDA with probability 99%
Tempfile successfully deleted.

30 -===- H:\Music (lossless)\Frank Turner\2009 - Poetry of the Deed\03 - Dan's Song.flac
Extracted successfully
Conclusion: this track is CDDA with probability 100%
Tempfile successfully deleted.

31 -===- H:\Music (lossless)\Frank Turner\2009 - Poetry of the Deed\04 - Poetry Of The Deed.flac
Extracted successfully
Conclusion: this track is CDDA with probability 100%
Tempfile successfully deleted.

32 -===- H:\Music (lossless)\Frank Turner\2009 - Poetry of the Deed\05 - Isabel.flac
Extracted successfully
Conclusion: this track is CDDA with probability 100%
Tempfile successfully deleted.

33 -===- H:\Music (lossless)\Frank Turner\2009 - Poetry of the Deed\06 - The Fastest Way Back Home.flac
Extracted successfully
Conclusion: this track is CDDA with probability 100%
Tempfile successfully deleted.

34 -===- H:\Music (lossless)\Frank Turner\2009 - Poetry of the Deed\07 - Sons Of Liberty.flac
Extracted successfully
Conclusion: this track is CDDA with probability 100%
Tempfile successfully deleted.

35 -===- H:\Music (lossless)\Frank Turner\2009 - Poetry of the Deed\08 - The Road.flac
Extracted successfully
Conclusion: this track is CDDA with probability 100%
Tempfile successfully deleted.

36 -===- H:\Music (lossless)\Frank Turner\2009 - Poetry of the Deed\09 - Faithful Son.flac
Extracted successfully
Conclusion: this track is CDDA with probability 100%
Tempfile successfully deleted.

37 -===- H:\Music (lossless)\Frank Turner\2009 - Poetry of the Deed\10 - Richard Divine.flac
Extracted successfully
Conclusion: this track is CDDA with probability 100%
Tempfile successfully deleted.

38 -===- H:\Music (lossless)\Frank Turner\2009 - Poetry of the Deed\11 - Sunday Nights.flac
Extracted successfully
Conclusion: this track is CDDA with probability 100%
Tempfile successfully deleted.

39 -===- H:\Music (lossless)\Frank Turner\2009 - Poetry of the Deed\12 - Our Lady Of The Campfires.flac
Extracted successfully
Conclusion: this track is CDDA with probability 100%
Tempfile successfully deleted.

40 -===- H:\Music (lossless)\Frank Turner\2009 - Poetry of the Deed\13 - Journey Of The Magi.flac
Extracted successfully
Conclusion: this track is CDDA with probability 100%
Tempfile successfully deleted.
REM COMMENT "CUETools generated dummy CUE sheet" 
FILE "01 - Live Fast Die Old.flac" WAVE
TRACK 01 AUDIO
INDEX 01 00:00:00
FILE "02 - Try This At Home.flac" WAVE
TRACK 02 AUDIO
INDEX 01 00:00:00
FILE "03 - Dan's Song.flac" WAVE
TRACK 03 AUDIO
INDEX 01 00:00:00
FILE "04 - Poetry Of The Deed.flac" WAVE
TRACK 04 AUDIO
INDEX 01 00:00:00
FILE "05 - Isabel.flac" WAVE
TRACK 05 AUDIO
INDEX 01 00:00:00
FILE "06 - The Fastest Way Back Home.flac" WAVE
TRACK 06 AUDIO
INDEX 01 00:00:00
FILE "07 - Sons Of Liberty.flac" WAVE
TRACK 07 AUDIO
INDEX 01 00:00:00
FILE "08 - The Road.flac" WAVE
TRACK 08 AUDIO
INDEX 01 00:00:00
FILE "09 - Faithful Son.flac" WAVE
TRACK 09 AUDIO
INDEX 01 00:00:00
FILE "10 - Richard Divine.flac" WAVE
TRACK 10 AUDIO
INDEX 01 00:00:00
FILE "11 - Sunday Nights.flac" WAVE
TRACK 11 AUDIO
INDEX 01 00:00:00
FILE "12 - Our Lady Of The Campfires.flac" WAVE
TRACK 12 AUDIO
INDEX 01 00:00:00
FILE "13 - Journey Of The Magi.flac" WAVE
TRACK 13 AUDIO
INDEX 01 00:00:00
01. Eulogy (1:34)
02. Peggy Sang The Blues (3:33)
03. I Still Believe (3:45)
04. Rivers (4:34)
05. I Am Disappeared (4:47)
06. English Curse (2:17)
07. One Foot Before The Other (3:26)
08. If Ever I Stray (2:54)
09. Wessex Boy (3:34)
10. Nights Become Days (4:26)
11. Redemption (4:48)
12. Glory Hallelujah (4:39)
13. Song For Eva Mae (3:44)
14. Wanderlust (3:14)
15. Balthazar, Impresario (4:01)
41 -===- H:\Music (lossless)\Frank Turner\2011 - England Keep My Bones [Deluxe Edition]\01 - Eulogy.flac 
Extracted successfully
Conclusion: this track is MPEG with probability 91%
Tempfile successfully deleted.

42 -===- H:\Music (lossless)\Frank Turner\2011 - England Keep My Bones [Deluxe Edition]\02 - Peggy Sang The Blues.flac
Extracted successfully
Conclusion: this track is CDDA with probability 100%
Tempfile successfully deleted.

43 -===- H:\Music (lossless)\Frank Turner\2011 - England Keep My Bones [Deluxe Edition]\03 - I Still Believe.flac
Extracted successfully
Conclusion: this track is CDDA with probability 100%
Tempfile successfully deleted.

44 -===- H:\Music (lossless)\Frank Turner\2011 - England Keep My Bones [Deluxe Edition]\04 - Rivers.flac
Extracted successfully
Conclusion: this track is CDDA with probability 99%
Tempfile successfully deleted.

45 -===- H:\Music (lossless)\Frank Turner\2011 - England Keep My Bones [Deluxe Edition]\05 - I Am Disappeared.flac
Extracted successfully
Conclusion: this track is CDDA with probability 100%
Tempfile successfully deleted.

46 -===- H:\Music (lossless)\Frank Turner\2011 - England Keep My Bones [Deluxe Edition]\06 - English Curse.flac
Extracted successfully
Conclusion: this track is CDDA with probability 100%
Tempfile successfully deleted.

47 -===- H:\Music (lossless)\Frank Turner\2011 - England Keep My Bones [Deluxe Edition]\07 - One Foot Before The Other.flac
Extracted successfully
Conclusion: this track is CDDA with probability 100%
Tempfile successfully deleted.

48 -===- H:\Music (lossless)\Frank Turner\2011 - England Keep My Bones [Deluxe Edition]\08 - If Ever I Stray.flac
Extracted successfully
Conclusion: this track is CDDA with probability 100%
Tempfile successfully deleted.

49 -===- H:\Music (lossless)\Frank Turner\2011 - England Keep My Bones [Deluxe Edition]\09 - Wessex Boy.flac
Extracted successfully
Conclusion: this track is CDDA with probability 99%
Tempfile successfully deleted.

50 -===- H:\Music (lossless)\Frank Turner\2011 - England Keep My Bones [Deluxe Edition]\10 - Nights Become Days.flac
Extracted successfully
Conclusion: this track is CDDA with probability 100%
Tempfile successfully deleted.

51 -===- H:\Music (lossless)\Frank Turner\2011 - England Keep My Bones [Deluxe Edition]\11 - Redemption.flac
Extracted successfully
Conclusion: this track is CDDA with probability 100%
Tempfile successfully deleted.

52 -===- H:\Music (lossless)\Frank Turner\2011 - England Keep My Bones [Deluxe Edition]\12 - Glory Hallelujah.flac
Extracted successfully
Conclusion: this track is CDDA with probability 100%
Tempfile successfully deleted.

53 -===- H:\Music (lossless)\Frank Turner\2011 - England Keep My Bones [Deluxe Edition]\13 - Song For Eva Mae.flac
Extracted successfully
Conclusion: this track is CDDA with probability 100%
Tempfile successfully deleted.

54 -===- H:\Music (lossless)\Frank Turner\2011 - England Keep My Bones [Deluxe Edition]\14 - Wanderlust.flac
Extracted successfully
Conclusion: this track is CDDA with probability 100%
Tempfile successfully deleted.

55 -===- H:\Music (lossless)\Frank Turner\2011 - England Keep My Bones [Deluxe Edition]\15 - Balthazar, Impresario.flac
Extracted successfully
Conclusion: this track is CDDA with probability 100%
Tempfile successfully deleted.
REM COMMENT "CUETools generated dummy CUE sheet" 
FILE "01 - Eulogy.flac" WAVE
TRACK 01 AUDIO
INDEX 01 00:00:00
FILE "02 - Peggy Sang The Blues.flac" WAVE
TRACK 02 AUDIO
INDEX 01 00:00:00
FILE "03 - I Still Believe.flac" WAVE
TRACK 03 AUDIO
INDEX 01 00:00:00
FILE "04 - Rivers.flac" WAVE
TRACK 04 AUDIO
INDEX 01 00:00:00
FILE "05 - I Am Disappeared.flac" WAVE
TRACK 05 AUDIO
INDEX 01 00:00:00
FILE "06 - English Curse.flac" WAVE
TRACK 06 AUDIO
INDEX 01 00:00:00
FILE "07 - One Foot Before The Other.flac" WAVE
TRACK 07 AUDIO
INDEX 01 00:00:00
FILE "08 - If Ever I Stray.flac" WAVE
TRACK 08 AUDIO
INDEX 01 00:00:00
FILE "09 - Wessex Boy.flac" WAVE
TRACK 09 AUDIO
INDEX 01 00:00:00
FILE "10 - Nights Become Days.flac" WAVE
TRACK 10 AUDIO
INDEX 01 00:00:00
FILE "11 - Redemption.flac" WAVE
TRACK 11 AUDIO
INDEX 01 00:00:00
FILE "12 - Glory Hallelujah.flac" WAVE
TRACK 12 AUDIO
INDEX 01 00:00:00
FILE "13 - Song For Eva Mae.flac" WAVE
TRACK 13 AUDIO
INDEX 01 00:00:00
FILE "14 - Wanderlust.flac" WAVE
TRACK 14 AUDIO
INDEX 01 00:00:00
FILE "15 - Balthazar, Impresario.flac" WAVE
TRACK 15 AUDIO
INDEX 01 00:00:00
01. Peggy Sang The Blues (3:33)
02. I Still Believe (3:45)
03. I Am Disappeared (4:47)
04. Peggy Sang The Blues (Live Acoustic Demo) (3:25)
05. I Still Believe (Live Acoustic Demo) (3:42)
06. I Am Disappeared (Live Acoustic Demo) (4:21)
56 -===- H:\Music (lossless)\Frank Turner\2011 - England Keep My Bones [Deluxe Edition]\2011 -  England Keep My Bones - Pre-order\ 01 Peggy Sang The Blues.flac 
Extracted successfully
Conclusion: this track is CDDA with probability 100%
Tempfile successfully deleted.

57 -===- H:\Music (lossless)\Frank Turner\2011 - England Keep My Bones [Deluxe Edition]\2011 - England Keep My Bones - Pre-order\ 02 I Still Believe.flac
Extracted successfully
Conclusion: this track is CDDA with probability 100%
Tempfile successfully deleted.

58 -===- H:\Music (lossless)\Frank Turner\2011 - England Keep My Bones [Deluxe Edition]\2011 - England Keep My Bones - Pre-order\ 03 I Am Disappeared.flac
Extracted successfully
Conclusion: this track is CDDA with probability 100%
Tempfile successfully deleted.

59 -===- H:\Music (lossless)\Frank Turner\2011 - England Keep My Bones [Deluxe Edition]\2011 - England Keep My Bones - Pre-order\ 04 Peggy Sang The Blues (Live Acoustic Demo).flac
Extracted successfully
Conclusion: this track is CDDA with probability 100%
Tempfile successfully deleted.

60 -===- H:\Music (lossless)\Frank Turner\2011 - England Keep My Bones [Deluxe Edition]\2011 - England Keep My Bones - Pre-order\ 05 I Still Believe (Live Acoustic Demo).flac
Extracted successfully
Conclusion: this track is CDDA with probability 100%
Tempfile successfully deleted.

61 -===- H:\Music (lossless)\Frank Turner\2011 - England Keep My Bones [Deluxe Edition]\2011 - England Keep My Bones - Pre-order\ 06 I Am Disappeared (Live Acoustic Demo).flac
Extracted successfully
Conclusion: this track is CDDA with probability 99%
Tempfile successfully deleted.
REM COMMENT "CUETools generated dummy CUE sheet" 
FILE " 01 Peggy Sang The Blues.flac" WAVE
TRACK 01 AUDIO
INDEX 01 00:00:00
FILE " 02 I Still Believe.flac" WAVE
TRACK 02 AUDIO
INDEX 01 00:00:00
FILE " 03 I Am Disappeared.flac" WAVE
TRACK 03 AUDIO
INDEX 01 00:00:00
FILE " 04 Peggy Sang The Blues (Live Acoustic Demo).flac" WAVE
TRACK 04 AUDIO
INDEX 01 00:00:00
FILE " 05 I Still Believe (Live Acoustic Demo).flac" WAVE
TRACK 05 AUDIO
INDEX 01 00:00:00
FILE " 06 I Am Disappeared (Live Acoustic Demo).flac" WAVE
TRACK 06 AUDIO
INDEX 01 00:00:00
01. Recovery (3:29)
02. Losing Days (3:32)
03. The Way I Tend To Be (3:41)
04. Plain Sailing Weather (4:02)
05. Good & Gone (3:50)
06. Tell Tale SIgns (4:13)
07. Four Simple Words (4:56)
08. Polaroid Picture (3:43)
09. The Fisher King Blues (5:00)
10. Anymore (3:10)
11. Oh Brother (4:19)
12. Broken Piano (5:30)
13. We Shall Not Overcome (3:53)
14. Wherefore Art Thou Gene Simmons (3:35)
15. Tattoos (2:40)
16. Undeveloped Film (4:17)
17. Time Machine (3:21)
18. Cowboy Chords (3:24)
62 -===- H:\Music (lossless)\Frank Turner\2013 - Tape Deck Heart [Deluxe Edition]\01 - Recovery.flac 
Extracted successfully
Conclusion: this track is CDDA with probability 100%
Tempfile successfully deleted.

63 -===- H:\Music (lossless)\Frank Turner\2013 - Tape Deck Heart [Deluxe Edition]\02 - Losing Days.flac
Extracted successfully
Conclusion: this track is CDDA with probability 100%
Tempfile successfully deleted.

64 -===- H:\Music (lossless)\Frank Turner\2013 - Tape Deck Heart [Deluxe Edition]\03 - The Way I Tend To Be.flac
Extracted successfully
Conclusion: this track is CDDA with probability 100%
Tempfile successfully deleted.

65 -===- H:\Music (lossless)\Frank Turner\2013 - Tape Deck Heart [Deluxe Edition]\04 - Plain Sailing Weather.flac
Extracted successfully
Conclusion: this track is CDDA with probability 100%
Tempfile successfully deleted.

66 -===- H:\Music (lossless)\Frank Turner\2013 - Tape Deck Heart [Deluxe Edition]\05 - Good & Gone.flac
Extracted successfully
Conclusion: this track is CDDA with probability 100%
Tempfile successfully deleted.

67 -===- H:\Music (lossless)\Frank Turner\2013 - Tape Deck Heart [Deluxe Edition]\06 - Tell Tale SIgns.flac
Extracted successfully
Conclusion: this track is CDDA with probability 100%
Tempfile successfully deleted.

68 -===- H:\Music (lossless)\Frank Turner\2013 - Tape Deck Heart [Deluxe Edition]\07 - Four Simple Words.flac
Extracted successfully
Conclusion: this track is CDDA with probability 100%
Tempfile successfully deleted.

69 -===- H:\Music (lossless)\Frank Turner\2013 - Tape Deck Heart [Deluxe Edition]\08 - Polaroid Picture.flac
Extracted successfully
Conclusion: this track is CDDA with probability 100%
Tempfile successfully deleted.

70 -===- H:\Music (lossless)\Frank Turner\2013 - Tape Deck Heart [Deluxe Edition]\09 - The Fisher King Blues.flac
Extracted successfully
Conclusion: this track is CDDA with probability 100%
Tempfile successfully deleted.

71 -===- H:\Music (lossless)\Frank Turner\2013 - Tape Deck Heart [Deluxe Edition]\10 - Anymore.flac
Extracted successfully
Conclusion: this track is CDDA with probability 99%
Tempfile successfully deleted.

72 -===- H:\Music (lossless)\Frank Turner\2013 - Tape Deck Heart [Deluxe Edition]\11 - Oh Brother.flac
Extracted successfully
Conclusion: this track is CDDA with probability 100%
Tempfile successfully deleted.

73 -===- H:\Music (lossless)\Frank Turner\2013 - Tape Deck Heart [Deluxe Edition]\12 - Broken Piano.flac
Extracted successfully
Conclusion: this track is CDDA with probability 94%
Tempfile successfully deleted.

74 -===- H:\Music (lossless)\Frank Turner\2013 - Tape Deck Heart [Deluxe Edition]\13 - We Shall Not Overcome.flac
Extracted successfully
Conclusion: this track is CDDA with probability 100%
Tempfile successfully deleted.

75 -===- H:\Music (lossless)\Frank Turner\2013 - Tape Deck Heart [Deluxe Edition]\14 - Wherefore Art Thou Gene Simmons.flac
Extracted successfully
Conclusion: this track is CDDA with probability 100%
Tempfile successfully deleted.

76 -===- H:\Music (lossless)\Frank Turner\2013 - Tape Deck Heart [Deluxe Edition]\15 - Tattoos.flac
Extracted successfully
Conclusion: this track is CDDA with probability 100%
Tempfile successfully deleted.

77 -===- H:\Music (lossless)\Frank Turner\2013 - Tape Deck Heart [Deluxe Edition]\16 - Undeveloped Film.flac
Extracted successfully
Conclusion: this track is CDDA with probability 100%
Tempfile successfully deleted.

78 -===- H:\Music (lossless)\Frank Turner\2013 - Tape Deck Heart [Deluxe Edition]\17 - Time Machine.flac
Extracted successfully
Conclusion: this track is CDDA with probability 100%
Tempfile successfully deleted.

79 -===- H:\Music (lossless)\Frank Turner\2013 - Tape Deck Heart [Deluxe Edition]\18 - Cowboy Chords.flac
Extracted successfully
Conclusion: this track is CDDA with probability 100%
Tempfile successfully deleted.
REM COMMENT "CUETools generated dummy CUE sheet" 
FILE "01 - Recovery.flac" WAVE
TRACK 01 AUDIO
INDEX 01 00:00:00
FILE "02 - Losing Days.flac" WAVE
TRACK 02 AUDIO
INDEX 01 00:00:00
FILE "03 - The Way I Tend To Be.flac" WAVE
TRACK 03 AUDIO
INDEX 01 00:00:00
FILE "04 - Plain Sailing Weather.flac" WAVE
TRACK 04 AUDIO
INDEX 01 00:00:00
FILE "05 - Good & Gone.flac" WAVE
TRACK 05 AUDIO
INDEX 01 00:00:00
FILE "06 - Tell Tale SIgns.flac" WAVE
TRACK 06 AUDIO
INDEX 01 00:00:00
FILE "07 - Four Simple Words.flac" WAVE
TRACK 07 AUDIO
INDEX 01 00:00:00
FILE "08 - Polaroid Picture.flac" WAVE
TRACK 08 AUDIO
INDEX 01 00:00:00
FILE "09 - The Fisher King Blues.flac" WAVE
TRACK 09 AUDIO
INDEX 01 00:00:00
FILE "10 - Anymore.flac" WAVE
TRACK 10 AUDIO
INDEX 01 00:00:00
FILE "11 - Oh Brother.flac" WAVE
TRACK 11 AUDIO
INDEX 01 00:00:00
FILE "12 - Broken Piano.flac" WAVE
TRACK 12 AUDIO
INDEX 01 00:00:00
FILE "13 - We Shall Not Overcome.flac" WAVE
TRACK 13 AUDIO
INDEX 01 00:00:00
FILE "14 - Wherefore Art Thou Gene Simmons.flac" WAVE
TRACK 14 AUDIO
INDEX 01 00:00:00
FILE "15 - Tattoos.flac" WAVE
TRACK 15 AUDIO
INDEX 01 00:00:00
FILE "16 - Undeveloped Film.flac" WAVE
TRACK 16 AUDIO
INDEX 01 00:00:00
FILE "17 - Time Machine.flac" WAVE
TRACK 17 AUDIO
INDEX 01 00:00:00
FILE "18 - Cowboy Chords.flac" WAVE
TRACK 18 AUDIO
INDEX 01 00:00:00
01. The Angel Islington (2:27)
02. Get Better (2:47)
03. The Next Storm (3:34)
04. The Opening Act Of Spring (3:01)
05. Glorious You (3:15)
06. Mittens (4:31)
07. Out Of Breath (2:06)
08. Demons (4:05)
09. Josephine (3:22)
10. Love Forty Down (2:30)
11. Silent Key (4:40)
12. Song For Josh (3:26)
13. Get Better (Acoustic) (2:51)
14. The Next Storm (Acoustic) (3:29)
15. The Opening Act Of Spring (Acoustic) (3:20)
16. Glorious You (Acoustic) (3:51)
17. Mittens (Acoustic) (4:17)
18. Out Of Breath (Acoustic) (2:01)
19. Demons (Acoustic) (4:27)
20. Josephine (Acoustic) (3:29)
21. Love Forty Down (Acoustic) (2:35)
22. Silent Key (Acoustic) (4:31)
Lossless Audio Checker 1.9.1 logfile from Thursday 28 January 2016 12:26:50 AM 

File: H:\Music (lossless)\Frank Turner\2015 - Positive Songs For Negative People (Deluxe Edition)\01 - The Angel Islington.flac
Result: CUTOFF

File: H:\Music (lossless)\Frank Turner\2015 - Positive Songs For Negative People (Deluxe Edition)\02 - Get Better.flac
Result: LOSSLESS

File: H:\Music (lossless)\Frank Turner\2015 - Positive Songs For Negative People (Deluxe Edition)\03 - The Next Storm.flac
Result: LOSSLESS

File: H:\Music (lossless)\Frank Turner\2015 - Positive Songs For Negative People (Deluxe Edition)\04 - The Opening Act Of Spring.flac
Result: LOSSLESS

File: H:\Music (lossless)\Frank Turner\2015 - Positive Songs For Negative People (Deluxe Edition)\05 - Glorious You.flac
Result: LOSSLESS

File: H:\Music (lossless)\Frank Turner\2015 - Positive Songs For Negative People (Deluxe Edition)\06 - Mittens.flac
Result: LOSSLESS

File: H:\Music (lossless)\Frank Turner\2015 - Positive Songs For Negative People (Deluxe Edition)\07 - Out Of Breath.flac
Result: LOSSLESS

File: H:\Music (lossless)\Frank Turner\2015 - Positive Songs For Negative People (Deluxe Edition)\08 - Demons.flac
Result: LOSSLESS

File: H:\Music (lossless)\Frank Turner\2015 - Positive Songs For Negative People (Deluxe Edition)\09 - Josephine.flac
Result: LOSSLESS

File: H:\Music (lossless)\Frank Turner\2015 - Positive Songs For Negative People (Deluxe Edition)\10 - Love Forty Down.flac
Result: LOSSLESS

File: H:\Music (lossless)\Frank Turner\2015 - Positive Songs For Negative People (Deluxe Edition)\11 - Silent Key.flac
Result: LOSSLESS

File: H:\Music (lossless)\Frank Turner\2015 - Positive Songs For Negative People (Deluxe Edition)\12 - Song For Josh.flac
Result: CUTOFF

File: H:\Music (lossless)\Frank Turner\2015 - Positive Songs For Negative People (Deluxe Edition)\13 - Get Better (Acoustic).flac
Result: LOSSLESS

File: H:\Music (lossless)\Frank Turner\2015 - Positive Songs For Negative People (Deluxe Edition)\14 - The Next Storm (Acoustic).flac
Result: LOSSLESS

File: H:\Music (lossless)\Frank Turner\2015 - Positive Songs For Negative People (Deluxe Edition)\15 - The Opening Act Of Spring (Acoustic).flac
Result: LOSSLESS

File: H:\Music (lossless)\Frank Turner\2015 - Positive Songs For Negative People (Deluxe Edition)\16 - Glorious You (Acoustic).flac
Result: LOSSLESS

File: H:\Music (lossless)\Frank Turner\2015 - Positive Songs For Negative People (Deluxe Edition)\17 - Mittens (Acoustic).flac
Result: LOSSLESS

File: H:\Music (lossless)\Frank Turner\2015 - Positive Songs For Negative People (Deluxe Edition)\18 - Out Of Breath (Acoustic).flac
Result: LOSSLESS

File: H:\Music (lossless)\Frank Turner\2015 - Positive Songs For Negative People (Deluxe Edition)\19 - Demons (Acoustic).flac
Result: LOSSLESS

File: H:\Music (lossless)\Frank Turner\2015 - Positive Songs For Negative People (Deluxe Edition)\20 - Josephine (Acoustic).flac
Result: LOSSLESS

File: H:\Music (lossless)\Frank Turner\2015 - Positive Songs For Negative People (Deluxe Edition)\21 - Love Forty Down (Acoustic).flac
Result: LOSSLESS

File: H:\Music (lossless)\Frank Turner\2015 - Positive Songs For Negative People (Deluxe Edition)\22 - Silent Key (Acoustic).flac
Result: LOSSLESS

Files checked: 22 | Lossless: 20 | Cutoff: 2 | Error: 0 | Elapsed time: 00:00:26.948
info [Профиль]  [ЛС] 

The Royal

Пол: Пол:Муж

Стаж: 6 лет 11 месяцев

Сообщений: 652

Россия
Рейтинг

post 28-Янв-2016 01:40 (спустя 2 года 1 месяц) [-]0[+]

[Цитировать] 

Добавлен новый альбом "2015 - Positive Songs for Negative People"
info [Профиль]  [ЛС] 
Показать сообщения:    
Ответить на тему

Текущее время: 06-Дек 12:18

Часовой пояс: GMT + 4



Вы не можете начинать темы
Вы не можете отвечать на сообщения
Вы не можете редактировать свои сообщения
Вы не можете удалять свои сообщения
Вы не можете голосовать в опросах
Вы не можете прикреплять файлы к сообщениям
Вы не можете скачивать файлы