Ошибка

Афоня (Георгий Данелия) [1975, драма, мелодрама, комедия, BDRip]

Ответить на тему
 
Автор Сообщение

CooL

Пол: Пол:Муж

Стаж: 6 лет 9 месяцев

Сообщений: 1235

СССР
Рейтинг

post 13-Дек-2013 23:18 4[+]

[Цитировать] 

pic="http://s001.youpic.su/pictures/1386882000/052bfea9a13d2201e6851605b5dbc01c.jpg"
Афоня


Год выпуска: 1975
Жанр: драма, мелодрама, комедия
Продолжительность: 01:31:57
Страна: СССР
Режиссер: Георгий Данелия
В ролях: Леонид Куравлёв, Евгения Симонова, Евгений Леонов, Борислав Брондуков, Валентина Талызина, Владимир Басов, Николай Парфёнов, Готлиб Ронинсон, Нина Русланова, Раиса Куркина
Описание: Весело и беззаботно жил слесарь-сантехник Афанасий. Не гнушался левыми заработками, любил выпить, поволочиться за девушками. Так проходил день за днем, но однажды... О том, что случилось с Афоней, рассказывает фильм признанного мастера комедии Георгия Данелии.


Автор рипа: | CooL
Сэмпл
Качество: BDRip (исходник HDClub)
Формат: AVI
Видео кодек: XviD
Аудио кодек: AC3
Видео: 704x512 (1.38:1), 23.976 fps, XviD build 65 ~1814 kbps avg, 0.21 bit/pixel
Аудио : 48 kHz, AC3 Dolby Digital, 3/2 (L,C,R,l,r) + LFE ch, ~448 kbps
Общее
Полное имя : Z:\afonya.1975.BDRip[CooL].avi
Формат : AVI
Формат/Информация : Audio Video Interleave
Размер файла : 1,46 Гбайт
Продолжительность : 1 ч. 31 м.
Общий поток : 2272 Кбит/сек
Программа кодирования : VirtualDubMod 1.5.10.2 (build 2540/release)
Библиотека кодирования : VirtualDubMod build 2540/release

Видео
Идентификатор : 0
Формат : MPEG-4 Visual
Профиль формата : Advanced Simple@L5
Параметр BVOP формата : 1
Параметр QPel формата : Нет
Параметр GMC формата : Без точки перехода
Параметр матрицы формата : Выборочная
Идентификатор кодека : DX50
Идентификатор кодека/Подсказка : DivX 5
Продолжительность : 1 ч. 31 м.
Битрейт : 1814 Кбит/сек
Ширина : 704 пикселя
Высота : 512 пикселей
Соотношение сторон : 1,375
Частота кадров : 23,976 кадра/сек
Цветовое пространство : YUV
Субдискретизация насыщенности : 4:2:0
Битовая глубина : 8 бит
Тип развёртки : Прогрессивная
Метод сжатия : С потерями
Бит/(Пиксели*Кадры) : 0.210
Размер потока : 1,17 Гбайт (80%)
Библиотека кодирования : XviD 65

Аудио
Идентификатор : 1
Формат : AC-3
Формат/Информация : Audio Coding 3
Расширение режима : CM (complete main)
Параметр Endianness формата : Big
Идентификатор кодека : 2000
Продолжительность : 1 ч. 31 м.
Вид битрейта : Постоянный
Битрейт : 448 Кбит/сек
Каналы : 6 каналов
Расположение каналов : Front: L C R, Side: L R, LFE
Частота : 48,0 КГц
Битовая глубина : 16 бит
Метод сжатия : С потерями
Размер потока : 295 Мбайт (20%)
Выравнивание : Разделение по промежуткам
Продолжительность промежутка : 42 мс. (1,00 видеокадр)
Время предзагрузки промежутка : 500 мс.
info [Профиль]  [ЛС] 

Tuuari

Стаж: 7 лет 7 месяцев

Сообщений: 817

Рейтинг

post 14-Дек-2013 01:57 (спустя 2 часа 39 минут) [-]0[+]

[Цитировать] 

Какие красивые и располагающие у них лица ^_^

_________________
Arbeit macht frei
info [Профиль]  [ЛС] 

Big23

Стаж: 6 лет 4 месяца

Сообщений: 992

Зимбабве
Рейтинг

post 14-Дек-2013 02:39 (спустя 41 минута) [-]5[+]

[Цитировать] 

Цитата:

и располагающие у них лица
А мне Афоня рупь должен © kolob_104

_________________
везде требуются космонавты
info [Профиль]  [ЛС] 

Phenom2013

Пол: Пол:Муж

Стаж: 3 года 11 месяцев

Сообщений: 152

СССР
Рейтинг

post 14-Дек-2013 09:35 (спустя 6 часов) [-]1[+]

[Цитировать] 

Big23 писал(а):

Цитата:

и располагающие у них лица
А мне Афоня рупь должен © kolob_104
Совести-то у меня — во! С прицепом! А времени нет

_________________
anime_111 anime_62 anime_98 anime_4 anime_119
info [Профиль]  [ЛС] 

chernobil

Пол: Пол:Муж

Стаж: 7 лет 2 месяца

Сообщений: 447

Россия
Рейтинг

post 14-Дек-2013 10:25 (спустя 50 минут) [-]0[+]

[Цитировать] 

Big23 писал(а):

Цитата:

и располагающие у них лица
А мне Афоня рупь должен © kolob_104
- Два
- Дваааа
info [Профиль]  [ЛС] 

Capr1cornus

Пол: Пол:Муж

Стаж: 6 лет 10 месяцев

Сообщений: 43

Россия
Рейтинг

post 14-Дек-2013 14:11 (спустя 3 часа) [-]0[+]

[Цитировать] 

Я на картошке...
info [Профиль]  [ЛС] 
Показать сообщения:    
Ответить на тему

Текущее время: 06-Дек 14:19

Часовой пояс: GMT + 4



Вы не можете начинать темы
Вы не можете отвечать на сообщения
Вы не можете редактировать свои сообщения
Вы не можете удалять свои сообщения
Вы не можете голосовать в опросах
Вы не можете прикреплять файлы к сообщениям
Вы не можете скачивать файлы