Ошибка

Топ Гир - Идеальное путешествие / Top Gear - The Perfect Road Trip (BBC) [2013 г., автошоу, BDRip 720p]

Ответить на тему
 
Автор Сообщение

markfiter

Пол: Пол:Муж

Стаж: 4 года 11 месяцев

Сообщений: 2722

Германия
Рейтинг

post 05-Дек-2013 23:00 0[+]

[Цитировать] 

Топ Гир - Идеальное путешествие / Top Gear - The Perfect Road Trip

Год выпуска: 2013
Страна: Великобритания
Жанр: автошоу
Продолжительность: 01:25:16
Перевод: Профессиональный (двухголосый закадровый) [Jetvis Studio & RG.paravozik]

Режиссер: BBC

В ролях: Джереми Кларксон и Ричард Хаммонд

Описание: Приветствуем всех зрителей на очередном специальном выпуске Top Gear. Сразу же после выхода 20-го сезона, команда BBC сообщила, что как это уже заведено Top Gear порадует всех зрителей новым специальным выпуском, что и случилось в ноябре 2013 года, новый специальный выпуск называется "Top Gear - Идеальное путешествие". В этом специальном выпуске участвуют только двое ведущих, это Джерeми Кларксон и Ричард Хаммонд.
Джереми и Ричард Хаммонд расскажут нам что по их мнению "идеальное путешествие". Их цель в этом выпуске - это выбор лучшего вида транспорта для разных путешествий по Европе. Цель непростая - ведь выбор так велик. Ричард и Джереми прокатятся на 20 разных автомобилях, начиная от простых и удобных, заканчивая сложными и самыми дорогими в мире, таких как Bugatti, Lamborghini и многие другие.

Качество: BDRip (720p)
Формат: MKV
Видео кодек: H.264
Аудио кодек: AC3
Видео: 1280x720 (16:9), 25 fps, ~4768 kbps, ~0.217 bit/pixel
Аудио: 48 kHz, AC3, 2 ch, ~192 kbps avg [rus]
Аудио 2: 48 kHz, AC3, 2 ch, ~192 kbps avg [eng]
Общее
Уникальный идентификатор : 244208905099157362749015318722717099064 (0xB7B8EC9F086930E399DC9B7F54CB2438)
Формат : Matroska
Версия формата : Version 4 / Version 2
Размер файла : 3,20 Гбайт
Продолжительность : 1 ч. 25 м.
Общий поток : 5375 Кбит/сек
Дата кодирования : UTC 2013-12-05 17:10:23
Программа кодирования : mkvmerge v6.6.0 ('The Edge Of The In Between') built on Dec 1 2013 17:55:00
Библиотека кодирования : libebml v1.3.0 + libmatroska v1.4.1

Видео
Идентификатор : 1
Формат : AVC
Формат/Информация : Advanced Video Codec
Профиль формата : High@L4.1
Параметр CABAC формата : Да
Параметр ReFrames формата : 3 кадра
Идентификатор кодека : V_MPEG4/ISO/AVC
Продолжительность : 1 ч. 25 м.
Битрейт : 5000 Кбит/сек
Ширина : 1280 пикселей
Высота : 720 пикселей
Соотношение сторон : 16:9
Режим частоты кадров : Постоянный
Частота кадров : 25,000 кадров/сек
Цветовое пространство : YUV
Субдискретизация насыщенности : 4:2:0
Битовая глубина : 8 бит
Тип развёртки : Прогрессивная
Бит/(Пиксели*Кадры) : 0.217
Размер потока : 2,91 Гбайт (91%)
Заголовок : TG-TPRT
Библиотека кодирования : x264 core 116 r2019M 9cc407d
Настройки программы : cabac=1 / ref=3 / deblock=1:0:0 / analyse=0x3:0x133 / me=hex / subme=7 / psy=1 / psy_rd=1.00:0.20 / mixed_ref=1 / me_range=16 / chroma_me=1 / trellis=1 / 8x8dct=1 / cqm=0 / deadzone=21,11 / fast_pskip=1 / chroma_qp_offset=-3 / threads=8 / sliced_threads=0 / nr=0 / decimate=1 / interlaced=0 / bluray_compat=0 / constrained_intra=0 / bframes=3 / b_pyramid=1 / b_adapt=2 / b_bias=0 / direct=3 / weightb=1 / open_gop=0 / weightp=2 / keyint=250 / keyint_min=25 / scenecut=40 / intra_refresh=0 / rc_lookahead=40 / rc=2pass / mbtree=1 / bitrate=5000 / ratetol=1.0 / qcomp=0.60 / qpmin=10 / qpmax=51 / qpstep=4 / cplxblur=20.0 / qblur=0.5 / ip_ratio=1.40 / aq=1:1.00
Default : Да
Forced : Нет

Аудио #1
Идентификатор : 2
Формат : AC-3
Формат/Информация : Audio Coding 3
Расширение режима : CM (complete main)
Параметр Endianness формата : Big
Идентификатор кодека : A_AC3
Продолжительность : 1 ч. 25 м.
Вид битрейта : Постоянный
Битрейт : 192 Кбит/сек
Каналы : 2 канала
Расположение каналов : Front: L R
Частота : 48,0 КГц
Битовая глубина : 16 бит
Метод сжатия : С потерями
Размер потока : 117 Мбайт (4%)
Заголовок : Jetvis Studio
Язык : Russian
Default : Да
Forced : Нет

Аудио #2
Идентификатор : 3
Формат : AC-3
Формат/Информация : Audio Coding 3
Расширение режима : CM (complete main)
Параметр Endianness формата : Big
Идентификатор кодека : A_AC3
Продолжительность : 1 ч. 25 м.
Вид битрейта : Постоянный
Битрейт : 192 Кбит/сек
Каналы : 2 канала
Расположение каналов : Front: L R
Частота : 48,0 КГц
Битовая глубина : 16 бит
Метод сжатия : С потерями
Размер потока : 117 Мбайт (4%)
Заголовок : Eng
Язык : English
Default : Нет
Forced : Нет
info [Профиль]  [ЛС] 

Valeria

Стаж: 6 лет 1 месяц

Сообщений: 117

Россия
Рейтинг

post 05-Дек-2013 23:51 (спустя 50 минут) [-]0[+]

[Цитировать] 

Любимое теле-шоу !!! что-то новое ))) буду смотреть обязательно !! спасибо большое !!!

_________________
info [Профиль]  [ЛС] 

zoom

Пол: Пол:Муж

Стаж: 5 лет 4 месяца

Сообщений: 156

СССР
Рейтинг

post 05-Дек-2013 23:56 (спустя 5 минут) [-]0[+]

[Цитировать] 

как же я рад видеть этих парней))))))
спасибо релизер!
info [Профиль]  [ЛС] 
Показать сообщения:    
Ответить на тему

Текущее время: 02-Дек 22:14

Часовой пояс: GMT + 4



Вы не можете начинать темы
Вы не можете отвечать на сообщения
Вы не можете редактировать свои сообщения
Вы не можете удалять свои сообщения
Вы не можете голосовать в опросах
Вы не можете прикреплять файлы к сообщениям
Вы не можете скачивать файлы