Ошибка

Топ Гир - Превосходное Путешествие / Top Gear - The Perfect Road Trip [2013, Автопередача, HDRip]

Ответить на тему
 
Автор Сообщение

CooL

Пол: Пол:Муж

Стаж: 6 лет 9 месяцев

Сообщений: 1235

СССР
Рейтинг

post 05-Дек-2013 01:12 1[+]

[Цитировать] 


Топ Гир - Превосходное Путешествие
Top Gear - The Perfect Road Trip

Название: Топ Гир - Превосходное Путешествие

Год выпуска: 2013
Жанр: Автопередача
Продолжительность: 01:24:52
Страна: Великобритания

Перевод: Профессиональный (двухголосый закадровый) - Jetvis Studio
Субтитры : присутствуют (notabenoid)
Ведущие: Jeremy Clarkson, Richard Hammond
Описание: 7 дней, 1500 км, 20 автомобилей, 2 катера, мотоцикл и одна мечта - идеальное путешествие.

Цель: выбрать идеальный вид транспорта для каждого участка на пути из Венеции (Италия) в Пау (Франция). Джереми и Хаммонд посетили трассу Монца (дом итальянской F1), передвигались по Монако на Bugatti, Lamborghini и на Ford Model T, плавали по каналам Венеции, тестировали Ferrari F12 Berlinetta и Mercedes SLS Black Edition, а так же многое другоу в новой полнометражной серии Top Gear.

Автор рипа: | CooL
Сэмпл
Качество: HDRip
Формат: AVI
Видео кодек: XviD
Аудио кодек: AC3 | MP3
Видео: 720x400 (1.80:1), 25 fps, XviD build 65 ~2004 kbps avg, 0.28 bit/pixel
Аудио 1 : 48 kHz, AC3 Dolby Digital, 3/2 (L,C,R,l,r) + LFE ch, ~448 kbps [ENG]
Аудио 2 : 48 kHz, MPEG Layer 3, 2 ch, ~192.00 kbps avg [RUS]

Так же, в раздаче присутствует озвучка отдельным файлом. Тем кто уже скачал серию достаточно загрузить только её
общее
Полное имя : Z:\Top.Gear_The.Perfect.Road.Trip.2013.HDRip[CooL]\Top.Gear_The.Perfect.Road.Trip.2013.HDRip[CooL].avi
Формат : AVI
Формат/Информация : Audio Video Interleave
Размер файла : 1,58 Гбайт
Продолжительность : 1 ч. 24 м.
Общий поток : 2659 Кбит/сек
Программа кодирования : VirtualDubMod 1.5.10.2 (build 2540/release)
Библиотека кодирования : VirtualDubMod build 2540/release

Видео
Идентификатор : 0
Формат : MPEG-4 Visual
Профиль формата : Advanced Simple@L5
Параметр BVOP формата : 1
Параметр QPel формата : Нет
Параметр GMC формата : Без точки перехода
Параметр матрицы формата : Выборочная
Идентификатор кодека : DX50
Идентификатор кодека/Подсказка : DivX 5
Продолжительность : 1 ч. 24 м.
Битрейт : 2004 Кбит/сек
Ширина : 720 пикселей
Высота : 400 пикселей
Соотношение сторон : 16:9
Частота кадров : 25,000 кадров/сек
Цветовое пространство : YUV
Субдискретизация насыщенности : 4:2:0
Битовая глубина : 8 бит
Тип развёртки : Прогрессивная
Метод сжатия : С потерями
Бит/(Пиксели*Кадры) : 0.278
Размер потока : 1,19 Гбайт (75%)
Библиотека кодирования : XviD 65

Аудио #1
Идентификатор : 1
Формат : MPEG Audio
Версия формата : Version 1
Профиль формата : Layer 3
Режим : Joint stereo
Идентификатор кодека : 55
Идентификатор кодека/Подсказка : MP3
Продолжительность : 1 ч. 24 м.
Вид битрейта : Постоянный
Битрейт : 192 Кбит/сек
Каналы : 2 канала
Частота : 48,0 КГц
Метод сжатия : С потерями
Размер потока : 117 Мбайт (7%)
Выравнивание : Соединение по промежуткам
Продолжительность промежутка : 40 мс. (1,00 видеокадр)
Время предзагрузки промежутка : 504 мс.

Аудио #2
Идентификатор : 2
Формат : AC-3
Формат/Информация : Audio Coding 3
Расширение режима : CM (complete main)
Параметр Endianness формата : Big
Идентификатор кодека : 2000
Продолжительность : 1 ч. 24 м.
Вид битрейта : Постоянный
Битрейт : 448 Кбит/сек
Каналы : 6 каналов
Расположение каналов : Front: L C R, Side: L R, LFE
Частота : 48,0 КГц
Битовая глубина : 16 бит
Метод сжатия : С потерями
Размер потока : 272 Мбайт (17%)
Выравнивание : Разделение по промежуткам
Продолжительность промежутка : 40 мс. (1,00 видеокадр)
Время предзагрузки промежутка : 500 мс.

Хочется поблагодарить всех тех, кто помогал с переводом и особенно: radeoff и Lexer1
info [Профиль]  [ЛС] 

Pl0fFik

Пол: Пол:Муж

Стаж: 7 лет 3 месяца

Сообщений: 29

Россия
Рейтинг

post 05-Дек-2013 03:10 (спустя 1 час 58 минут) [-]-2[+]

[Цитировать] 

на нотабеноиде готовность еще 97% только
info [Профиль]  [ЛС] 

CooL

Пол: Пол:Муж

Стаж: 6 лет 9 месяцев

Сообщений: 1235

СССР
Рейтинг

post 05-Дек-2013 07:21 (спустя 4 часа) [-]3[+]

[Цитировать] 

Pl0fFik писал(а):

на нотабеноиде готовность еще 97% только
я сам участвовал в переводе, перевод готов на 100%. Не переведены только вздохи и смех.
info [Профиль]  [ЛС] 

TorAdin

Стаж: 7 лет 2 месяца

Сообщений: 612

Рейтинг

post 05-Дек-2013 11:36 (спустя 4 часа) [-]0[+]

[Цитировать] 

CooL
спасибо братюнь. А 720 р будет?
info [Профиль]  [ЛС] 

EmptyPromises

Пол: Пол:Муж

Стаж: 4 года 1 месяц

Сообщений: 59

Россия
Рейтинг

post 05-Дек-2013 14:52 (спустя 3 часа) [-]0[+]

[Цитировать] 

А где Капитан Улитка?
info [Профиль]  [ЛС] 

iPOWER

Пол: Пол:Муж

Стаж: 7 лет 2 месяца

Сообщений: 162

Рейтинг

post 05-Дек-2013 15:31 (спустя 39 минут) [-]1[+]

[Цитировать] 

EmptyPromises писал(а):

А где Капитан Улитка?
это такие какие то промежуточные фильмы Топ -Гир, можно вспомнить Топ Гир машины джеймса бонда, где был хаммонд, а Мэй и Кларксон снимались в "Самый худший автомобиль", можно заглянуть еше в прошлое и там такие же моменты будут где или один или два ведущих вместе.
info [Профиль]  [ЛС] 

TorAdin

Стаж: 7 лет 2 месяца

Сообщений: 612

Рейтинг

post 05-Дек-2013 16:11 (спустя 39 минут) [-]0[+]

[Цитировать] 

Шикарный межсезончик. Куча всего и море фана. Астон Мартин шикарен.
info [Профиль]  [ЛС] 

leonid87ezhik23

Пол: Пол:Муж

Стаж: 5 лет 11 месяцев

Сообщений: 22

Новая Зеландия
Рейтинг

post 05-Дек-2013 16:14 (спустя 3 минуты) [-]1[+]

[Цитировать] 

Спасибо Топ-ГИРу и Нотабеноиду за хорошее настроение. Его как раз не хватало! я так давненько не смеялся - искренне и от души ! спасибо ребята! kolob_117 kolob_123

_________________
"Из всех гитарных приемов, техник и способов звукоизвлечения самым главным остается не pizzicatto, не stacatto, а pizdatto. Все великие гитарные мастера играли pizdatto, и, причем, на совершенно разных инструментах"
info [Профиль]  [ЛС] 

CooL

Пол: Пол:Муж

Стаж: 6 лет 9 месяцев

Сообщений: 1235

СССР
Рейтинг

post 05-Дек-2013 16:36 (спустя 21 минута) [-]1[+]

[Цитировать] 

ребят, если увидите явные ляпы перевода, то пишите сюда ) просто вчера в час ночи просматривали, могли не заметить.
info [Профиль]  [ЛС] 

Roman0612

Пол: Пол:Муж

Стаж: 6 лет 2 месяца

Сообщений: 44

Предупреждений: 1

Россия
Рейтинг

post 05-Дек-2013 16:49 (спустя 13 минут) [-]0[+]

[Цитировать] 

а озвучка будет?
info [Профиль]  [ЛС] 

TorAdin

Стаж: 7 лет 2 месяца

Сообщений: 612

Рейтинг

post 05-Дек-2013 19:35 (спустя 2 часа 46 минут) [-]0[+]

[Цитировать] 

CooL
вроде все норм с переводом.
info [Профиль]  [ЛС] 

CooL

Пол: Пол:Муж

Стаж: 6 лет 9 месяцев

Сообщений: 1235

СССР
Рейтинг

post 05-Дек-2013 23:59 (спустя 4 часа) [-]0[+]

[Цитировать] 

Добавлена озвучка от Jetvis Studio и вырезана реклама.
info [Профиль]  [ЛС] 

Чупа

Пол: Пол:Муж

Стаж: 3 года 10 месяцев

Сообщений: 9

Антарктида
Рейтинг

post 06-Дек-2013 22:08 (спустя 22 часа) [-]0[+]

[Цитировать] 

Люблю этих чертей!
Спасибо,отдельная благодарность за озвучку
info [Профиль]  [ЛС] 

frenki27

Пол: Пол:Муж

Стаж: 6 лет 9 месяцев

Сообщений: 15

Россия
Рейтинг

post 07-Дек-2013 09:07 (спустя 10 часов) [-]0[+]

[Цитировать] 

ООО,огромное спасибо,углядкой видел видео со съемок,думал сезон новый,ан-нет, полноценная фильма))) От душенски)
info [Профиль]  [ЛС] 
Показать сообщения:    
Ответить на тему

Текущее время: 05-Дек 14:35

Часовой пояс: GMT + 4



Вы не можете начинать темы
Вы не можете отвечать на сообщения
Вы не можете редактировать свои сообщения
Вы не можете удалять свои сообщения
Вы не можете голосовать в опросах
Вы не можете прикреплять файлы к сообщениям
Вы не можете скачивать файлы