Ошибка

До окончания фрилича осталось:


Великий Гэтсби / The Great Gatsby (Баз Лурман) [2013 г., драма, мелодрама, BDRemux 1080p]

Ответить на тему
 
Автор Сообщение

Basketballman

Пол: Пол:Муж

Стаж: 7 лет 1 месяц

Сообщений: 280

Россия
Рейтинг

post 30-Ноя-2013 15:06 0[+]

[Цитировать] 

Великий Гэтсби / The Great Gatsby

Год выпуска: 2013
Страна: Австралия, США
Жанр: драма, мелодрама
Продолжительность: 02:22:06
Перевод: профессиональный (полное дублирование) [лицензия]
Субтитры: русские, румынские, английские, украинские
Режиссер:
  • Баз Лурман
В ролях:
  • Леонардо ДиКаприо, Тоби Магуайр, Кэри Маллиган, Джоэл Эдгертон, Айла Фишер, Лиза Адам, Фрэнк Элдридж, Амитабх Баччан, Стив Бисли, Ричард Картер, Джейсон Кларк, Эделейд Клеменс, Винс Колосимо, Макс Каллен, Мэл Дэй, Элизабет Дебики

Описание: Весной 1922 года, в эпоху разлагающейся морали, блистательного джаза и «королей контрабандного алкоголя», Ник Каррауэй приезжает из Среднего Запада в Нью-Йорк. Преследуя собственную американскую мечту, он селится по соседству с таинственным, известным своими вечеринками миллионером Джеем Гэтсби, а на противоположном берегу бухты проживают его кузина Дэйзи и её муж, повеса и аристократ, Том Бьюкенен. Так Ник оказывается вовлечённым в захватывающий мир богатых — их иллюзий, любви и обманов. Он становится свидетелем происходящего в этом мире и пишет историю невозможной любви, вечных мечтаний и человеческой трагедии, которые являются отражением современных времен и нравов.


Качество: BD-Remux 1080p
Формат: MKV
Видео кодек: MPEG-4
Аудио кодек: AC3, DTS-HD
Видео: 1920x1080, 23.976 fps, 21.1 Mбит/с
Аудио: 1) Russian: AC3, 6 ch, 448 Kbps
2) English: DTS-HD MA, 6 ch, 2183 Kbps
Субтитры: SRT

Sample
General
Unique ID : 174707064568316548614122927644022714164 (0x836F5B51A97170B090E46901FF64AF34)
Complete name : D:\Кино\The.Great.Gatsby.(2013).BDRemux.[1080p].mkv
Format : Matroska
Format version : Version 2
File size : 23.9 GiB
Duration : 2h 22mn
Overall bit rate mode : Variable
Overall bit rate : 24.0 Mbps
Movie name : The Great Gatsby (2013) / Lelya_K for NNM-Club
Encoded date : UTC 2013-09-06 17:45:18
Writing application : mkvmerge v6.3.0 ('You can't stop me!') built on Jun 28 2013 20:09:41
Writing library : libebml v1.3.0 + libmatroska v1.4.0

Video
ID : 1
Format : AVC
Format/Info : Advanced Video Codec
Format profile : High@L4.1
Format settings, CABAC : Yes
Format settings, ReFrames : 2 frames
Codec ID : V_MPEG4/ISO/AVC
Duration : 2h 22mn
Bit rate mode : Variable
Width : 1 920 pixels
Height : 1 080 pixels
Display aspect ratio : 16:9
Frame rate mode : Constant
Frame rate : 23.976 fps
Color space : YUV
Chroma subsampling : 4:2:0
Bit depth : 8 bits
Scan type : Progressive
Title : Великий.Гэтсби-The.Great.Gatsby.(2013).BDRemux.[1080p]
Language : English
Default : Yes
Forced : No

Audio #1
ID : 2
Format : AC-3
Format/Info : Audio Coding 3
Mode extension : CM (complete main)
Format settings, Endianness : Big
Codec ID : A_AC3
Duration : 2h 22mn
Bit rate mode : Constant
Bit rate : 448 Kbps
Channel count : 6 channels
Channel positions : Front: L C R, Side: L R, LFE
Sampling rate : 48.0 KHz
Bit depth : 16 bits
Compression mode : Lossy
Stream size : 455 MiB (2%)
Language : Russian
Default : Yes
Forced : No

Audio #2
ID : 3
Format : AC-3
Format/Info : Audio Coding 3
Mode extension : CM (complete main)
Format settings, Endianness : Big
Codec ID : A_AC3
Duration : 2h 22mn
Bit rate mode : Constant
Bit rate : 448 Kbps
Channel count : 6 channels
Channel positions : Front: L C R, Side: L R, LFE
Sampling rate : 48.0 KHz
Bit depth : 16 bits
Compression mode : Lossy
Stream size : 455 MiB (2%)
Language : Ukrainian
Default : No
Forced : No

Audio #3
ID : 4
Format : DTS
Format/Info : Digital Theater Systems
Format profile : MA / Core
Mode : 16
Format settings, Endianness : Big
Codec ID : A_DTS
Duration : 2h 22mn
Bit rate mode : Variable
Bit rate : Unknown / 1 509 Kbps
Channel count : 6 channels
Channel positions : Front: L C R, Side: L R, LFE
Sampling rate : 48.0 KHz
Bit depth : 16 bits
Compression mode : Lossless / Lossy
Title : DTS-HD MA 5.1 / 2183 kbps
Language : English
Default : No
Forced : No

Text #1
ID : 5
Format : UTF-8
Codec ID : S_TEXT/UTF8
Codec ID/Info : UTF-8 Plain Text
Title : Forced
Language : Russian
Default : Yes
Forced : No

Text #2
ID : 6
Format : UTF-8
Codec ID : S_TEXT/UTF8
Codec ID/Info : UTF-8 Plain Text
Title : Full
Language : Russian
Default : No
Forced : No

Text #3
ID : 7
Format : UTF-8
Codec ID : S_TEXT/UTF8
Codec ID/Info : UTF-8 Plain Text
Language : Romanian
Default : No
Forced : No

Text #4
ID : 8
Format : UTF-8
Codec ID : S_TEXT/UTF8
Codec ID/Info : UTF-8 Plain Text
Title : Forced
Language : Ukrainian
Default : No
Forced : No

Text #5
ID : 9
Format : UTF-8
Codec ID : S_TEXT/UTF8
Codec ID/Info : UTF-8 Plain Text
Title : Full
Language : Ukrainian
Default : No
Forced : No

Text #6
ID : 10
Format : UTF-8
Codec ID : S_TEXT/UTF8
Codec ID/Info : UTF-8 Plain Text
Title : Full
Language : English
Default : No
Forced : No

Text #7
ID : 11
Format : UTF-8
Codec ID : S_TEXT/UTF8
Codec ID/Info : UTF-8 Plain Text
Title : SDH
Language : English
Default : No
Forced : No

Text #8
ID : 12
Format : UTF-8
Codec ID : S_TEXT/UTF8
Codec ID/Info : UTF-8 Plain Text
Title : SDH (Colored)
Language : English
Default : No
Forced : No

Menu
00:00:00.000 : en:Chapter 1
00:11:04.080 : en:Chapter 2
00:22:55.832 : en:Chapter 3
00:34:26.898 : en:Chapter 4
00:44:48.727 : en:Chapter 5
00:55:36.332 : en:Chapter 6
01:06:20.643 : en:Chapter 7
01:18:27.786 : en:Chapter 8
01:31:13.926 : en:Chapter 9
01:44:11.954 : en:Chapter 10
01:56:35.154 : en:Chapter 11
02:05:46.121 : en:Chapter 12
02:09:40.981 : en:Chapter 13
info [Профиль]  [ЛС] 
Показать сообщения:    
Ответить на тему

Текущее время: 10-Дек 01:25

Часовой пояс: GMT + 4



Вы не можете начинать темы
Вы не можете отвечать на сообщения
Вы не можете редактировать свои сообщения
Вы не можете удалять свои сообщения
Вы не можете голосовать в опросах
Вы не можете прикреплять файлы к сообщениям
Вы не можете скачивать файлы