Ошибка

Pocoмaxa: Бeccмepтный в 3Д / The Wоlvеrinе 3D (Джeймc Mэнгoлд) [2013, Фантастика, Фэнтези, Боевик, Приключения, BDrip, 1080p, 3D]

Ответить на тему
 
Автор Сообщение

Dr.Zero

Пол: Пол:Муж

Стаж: 8 лет 4 месяца

Сообщений: 198

Украина
Рейтинг

post 21-Ноя-2013 21:01 1[+]

[Цитировать] 

pic="http://s61.radikal.ru/i171/1311/82/324b17b7209e.png"
Pocoмaxa: Бeccмepтный в 3Д / The Wоlvеrinе 3D

«Когда он уязвим, он наиболее опасен»


Год выпуска: 2013
Страна: Австралия, США (20th Century Fox Film, Marvel Entertainment)
Жанр: Фантастика, Фэнтези, Боевик, Приключения
Продолжительность: 02:06:09
Перевод: Профессиональный (полное дублирование)
Язык субтитров: Русский, Английский, Украинский
Режиссер:
  • Джеймс Мэнголд

Роли исполняли (дублировали):


• Logan - Хью Джекман (Александр Рахленко)
• Mariko - Тао Окамото
• Yukio - Рила Фукусима
• Viper - Светлана Ходченкова (Светлана Ходченкова)
• Harada - Уилл Юн Ли (Пётр Иващенко)
• Yashida - Харукико Яманоути (Владимир Антоник)
• Shingen - Хироюки Санада
• Noburo - Брайан Ти
• Jean Grey - Фамке Янссен
• Magneto - Иэн МакКеллен
• Charles Xavier - Патрик Стюарт

Новая глава приключений Росомахи развернётся в Японии, где Логану предстоит выяснить, что острее — когти Росомахи или меч Серебряного Самурая.
|
Автор рипа Ash61
Премьера: 16 июля 2013 (25 июля 2013)
Релиз на Blu-Ray (DVD) (Россия): 28 ноября 2013
Бюджет: $120 000 000
Кассовые сборы: $415 179 506
General
Unique ID : 234402276209458685139424297020229346987 (0xB0583C7CBE4C056AAD90C3A15972E6AB)
Complete name : E:\TheWolverine(2013)3D-halfOU(Ash61)Theatrical\TheWolverine(2013)3D-halfOU(Ash61)Theatrical.mkv
Format : Matroska
Format version : Version 2
File size : 10.6 GiB
Duration : 2h 6mn
Overall bit rate : 12.0 Mbps
Movie name : Росомаха: Бессмертный / The Wolverine (2013) 3D
Encoded date : UTC 2013-11-20 09:34:02
Writing application : mkvmerge v5.8.0 ('No Sleep / Pillow') built on Sep 2 2012 15:37:04
Writing library : libebml v1.2.3 + libmatroska v1.3.0

Video
ID : 1
Format : AVC
Format/Info : Advanced Video Codec
Format profile : High@L4.1
Format settings, CABAC : Yes
Format settings, ReFrames : 4 frames
Codec ID : V_MPEG4/ISO/AVC
Duration : 2h 6mn
Bit rate : 10.5 Mbps
Width : 1 920 pixels
Height : 1 080 pixels
Display aspect ratio : 16:9
Frame rate mode : Constant
Frame rate : 23.976 fps
Color space : YUV
Chroma subsampling : 4:2:0
Bit depth : 8 bits
Scan type : Progressive
Bits/(Pixel*Frame) : 0.212
Stream size : 9.27 GiB (87%)
Title : BDRip by Ash61
Writing library : x264 core 129 r2245 bc13772
Encoding settings : cabac=1 / ref=4 / deblock=1:-3:-3 / analyse=0x3:0x113 / me=umh / subme=10 / psy=1 / psy_rd=1.00:0.15 / mixed_ref=1 / me_range=32 / chroma_me=1 / trellis=2 / 8x8dct=1 / cqm=0 / deadzone=21,11 / fast_pskip=1 / chroma_qp_offset=-3 / threads=12 / lookahead_threads=2 / sliced_threads=0 / nr=0 / decimate=1 / interlaced=0 / bluray_compat=0 / constrained_intra=0 / bframes=10 / b_pyramid=2 / b_adapt=2 / b_bias=0 / direct=3 / weightb=1 / open_gop=0 / weightp=2 / keyint=250 / keyint_min=23 / scenecut=40 / intra_refresh=0 / rc_lookahead=60 / rc=crf / mbtree=1 / crf=16.5 / qcomp=0.70 / qpmin=0 / qpmax=69 / qpstep=4 / vbv_maxrate=40000 / vbv_bufsize=30000 / crf_max=0.0 / nal_hrd=none / frame-packing=4 / ip_ratio=1.40 / aq=1:0.70
Language : English
Default : Yes
Forced : No

Audio #1
ID : 2
Format : AC-3
Format/Info : Audio Coding 3
Mode extension : CM (complete main)
Format settings, Endianness : Big
Codec ID : A_AC3
Duration : 2h 6mn
Bit rate mode : Constant
Bit rate : 640 Kbps
Channel(s) : 6 channels
Channel positions : Front: L C R, Side: L R, LFE
Sampling rate : 48.0 KHz
Bit depth : 16 bits
Compression mode : Lossy
Stream size : 577 MiB (5%)
Title : Дубляж - BD CEE
Language : Russian
Default : Yes
Forced : No

Audio #2
ID : 3
Format : AC-3
Format/Info : Audio Coding 3
Mode extension : CM (complete main)
Format settings, Endianness : Big
Codec ID : A_AC3
Duration : 2h 6mn
Bit rate mode : Constant
Bit rate : 640 Kbps
Channel(s) : 6 channels
Channel positions : Front: L C R, Side: L R, LFE
Sampling rate : 48.0 KHz
Bit depth : 16 bits
Compression mode : Lossy
Stream size : 577 MiB (5%)
Title : Original - BD3D
Language : English
Default : No
Forced : No

Text
ID : 4
Format : UTF-8
Codec ID : S_TEXT/UTF8
Codec ID/Info : UTF-8 Plain Text
Title : Форсированные (на японскую речь)
Language : Russian
Default : Yes
Forced : No

Menu
00:00:00.000 : :1
00:05:03.720 : :2
00:07:39.668 : :3
00:08:40.437 : :4
00:10:25.500 : :5
00:13:56.794 : :6
00:16:49.300 : :7
00:19:13.069 : :8
00:22:03.739 : :9
00:26:38.305 : :10
00:28:53.398 : :11
00:30:21.403 : :12
00:33:43.146 : :13
00:38:08.244 : :14
00:42:42.310 : :15
00:44:19.073 : :16
00:47:06.741 : :17
00:52:38.280 : :18
00:54:37.316 : :19
01:00:06.478 : :20
01:06:16.222 : :21
01:11:36.959 : :22
01:16:25.206 : :23
01:19:30.808 : :24
01:22:34.575 : :25
01:27:33.206 : :26
01:30:37.140 : :27
01:33:00.033 : :28
01:36:33.204 : :29
01:40:14.217 : :30
01:43:04.512 : :31
01:46:07.570 : :32
01:51:06.076 : :33
01:53:01.483 : :34
01:55:50.777 : :35
01:57:21.451 : :36

Качество: BDRip
Формат: MKV
Формат 3D: Half OverUnder / Вертикальная анаморфная стереопара
Видео кодек: H.264
Аудио кодек: AC3
Видео: AVC / 23,976 fps / 1920х1080p / 10.5 Mbps
Аудио:
#1 - Русский / AC3 / 48 KHz / 5.1 ch / 640 Kbps (Дубляж - BD CEE)
#2 - Английский / AC3 / 48 KHz / 5.1 ch / 640 Kbps (Original - BD 3D)
Субтитры:
Внешние (SRT UTF-8):
#1 - Русские Форсированные (на японскую речь) (включены по умолчанию)
#2 - Русские Полные
#3 - Украинские Полные
#4 - English Forced
#5 - English SDH
Вшитые (softsub):
#1 - Русские Форсированные (на японскую речь) (включены по умолчанию)

info [Профиль]  [ЛС] 

zdrassste

Пол: Пол:Муж

Стаж: 7 лет 10 месяцев

Сообщений: 13

Германия
Рейтинг

post 24-Ноя-2013 14:56 (спустя 2 дня 17 часов) [-]0[+]

[Цитировать] 

Это для пассивного 3D?
info [Профиль]  [ЛС] 

Dr.Zero

Пол: Пол:Муж

Стаж: 8 лет 4 месяца

Сообщений: 198

Украина
Рейтинг

post 24-Ноя-2013 15:00 (спустя 3 минуты) [-]0[+]

[Цитировать] 

Без разницы

_________________
info [Профиль]  [ЛС] 

Nico21rus

Пол: Пол:Муж

Стаж: 8 лет 5 месяцев

Сообщений: 14

Россия
Рейтинг

post 24-Ноя-2013 23:18 (спустя 8 часов) [-]0[+]

[Цитировать] 

скажите, вот у меня телек lg с поляризационным(пассивным) 3д. подойдет ли этот фильм для просмотра, или обязательно нужны очки затворного типа?
info [Профиль]  [ЛС] 

A7_Sash

Пол: Пол:Муж

Стаж: 8 лет 1 месяц

Сообщений: 1

Россия
Рейтинг

post 26-Ноя-2013 22:09 (спустя 1 день 22 часа) [-]0[+]

[Цитировать] 

Nico21rus писал(а):

скажите, вот у меня телек lg с поляризационным(пассивным) 3д. подойдет ли этот фильм для просмотра, или обязательно нужны очки затворного типа?
Подойдет, если поддерживает "Вертикальная анаморфная стереопара"
info [Профиль]  [ЛС] 

post 07-Апр-2014 00:01 (спустя 4 месяца 10 дней) [-]0[+]

Топик был перенесен из форума 3D Новинки в форум 3D

BZzz
 
Показать сообщения:    
Ответить на тему

Текущее время: 21-Ноя 01:18

Часовой пояс: GMT + 4



Вы не можете начинать темы
Вы не можете отвечать на сообщения
Вы не можете редактировать свои сообщения
Вы не можете удалять свои сообщения
Вы не можете голосовать в опросах
Вы не можете прикреплять файлы к сообщениям
Вы не можете скачивать файлы