Ошибка

Кряк-Бряк / Quack Pack / (1-39 из 39)[1996 г., Мультсериал, подростковый, комедия, приключения. SATRip]

Ответить на тему
 
Автор Сообщение

saintmedium

Пол: Пол:Муж

Стаж: 6 лет

Сообщений: 129

СССР
Рейтинг

post 14-Ноя-2013 20:03 1[+]

[Цитировать] 

Кряк-Бряк

Год: 1996
Страна: United States
Жанр: Приключения, комедия.
Тип: Мультипликационный сериал
Режиссёр: Курт Андерсон, Тоби Шелтон
Описание:
Этот сериал является продолжением Утиных историй. Хьюи, Дьюи и Луи выросли и теперь вам будет интересно наблюдать за их молодёжными проделками.
Качество: SATRip
Формат: AVI
Видео кодек: DivX
Аудио кодек: MP3
Видео: 640x480 (1.33:1), 25 fps, DivX Codec 6.0 ~1250 kbps
Аудио: RU 48 kHz, MPEG Layer 3, 2 ch, ~128.00 kbps avg
General
Complete name : 01.Quack Pack - The Really Mighty Ducks.avi
Format : AVI
Format/Info : Audio Video Interleave
File size : 213 MiB
Duration : 20mn 20s
Overall bit rate : 1 466 Kbps
Writing application : Nandub v1.0rc2
Writing library : Nandub build 1853/release

Video
ID : 0
Format : MPEG-4 Visual
Format settings, BVOP : 1
Format settings, QPel : No
Format settings, GMC : No warppoints
Format settings, Matrix : Default (H.263)
Muxing mode : Packed bitstream
Codec ID : DX50
Codec ID/Hint : DivX 5
Duration : 20mn 20s
Bit rate : 1 326 Kbps
Width : 640 pixels
Height : 480 pixels
Display aspect ratio : 4:3
Frame rate : 25.000 fps
Color space : YUV
Chroma subsampling : 4:2:0
Bit depth : 8 bits
Scan type : Progressive
Compression mode : Lossy
Bits/(Pixel*Frame) : 0.173
Stream size : 193 MiB (90%)
Writing library : DivX 6.0.0 (UTC 2005-06-15)

Audio
ID : 1
Format : MPEG Audio
Format version : Version 1
Format profile : Layer 3
Codec ID : 55
Codec ID/Hint : MP3
Duration : 20mn 19s
Bit rate mode : Constant
Bit rate : 128 Kbps
Channel(s) : 2 channels
Sampling rate : 44.1 KHz
Compression mode : Lossy
Stream size : 18.6 MiB (9%)
Alignment : Aligned on interleaves
Interleave, duration : 26 ms (0.65 video frame)
Interleave, preload duration : 496 ms
info [Профиль]  [ЛС] 

post 14-Ноя-2013 21:40 (спустя 1 час 37 минут) [-]0[+]

Топик был перенесен из форума Анонсы в форум Мультсериалы

L
 
Показать сообщения:    
Ответить на тему

Текущее время: 06-Дек 16:15

Часовой пояс: GMT + 4



Вы не можете начинать темы
Вы не можете отвечать на сообщения
Вы не можете редактировать свои сообщения
Вы не можете удалять свои сообщения
Вы не можете голосовать в опросах
Вы не можете прикреплять файлы к сообщениям
Вы не можете скачивать файлы