Ошибка

Смурфики 2 / The Smurfs 2 (Раджа Госнелл) [2013, мультфильм, фэнтези, комедия, семейный, BDRip 1080p][Лицензия]

Ответить на тему
 
Автор Сообщение

Russian Man

Пол: Пол:Муж

Стаж: 4 года 4 месяца

Сообщений: 166

Россия
Рейтинг

post 14-Ноя-2013 16:31 0[+]

[Цитировать] 

Смурфики 2 / The Smurfs 2


Год выпуска: 2013
Страна: США
Жанр: Мультфильм, фэнтези, комедия, семейный
Продолжительность: 01:40:42
Перевод: Дублированный [Лицензия]
Субтитры: Русские, английские
В ролях: Хэнк Азария, Нил Патрик Харрис, Брендан Глисон, Джейма Мейс, Джонатан Уинтерс, Кэти Перри, Кристина Риччи, Дж.Б. Смув, Джордж Лопес, Антон Ельчин...
Режиссёр: Раджа Госнелл
Гаргамел создаёт Хакуса и Векси, как две капли воды похожую на смурфиков злобную парочку, надеясь всё-таки обрести магическую силу. Когда он узнаёт, что лишь настоящий смурф может дать ему то, что он хочет, и лишь Смурфетта способна превратить Хакуса и Векси в настоящих смурфов, Гаргамел похищает Смурфетту и берёт её с собой в Париж, планируя сделать её своей прислужницей. Но смурфики — Папа, Растяпа, Смельчак, Ворчун, Красавчик, Благоразумник — и их друзья из Нью-Йорка этого так не оставят. Тем более что к ним присоединился новорождённый Голубчик.
Сэмпл
Качество: BDRip 1080
Формат: MKV
Видео кодек: AVC
Аудио кодек: AC3, Dts
Видео: 1920x1036, 23.976fps ,10400 Кбит/с
Аудио: AC3, 6 ch, 640 Кбит/с, 48 Кгц- Русский
Аудио: DTS, 6 ch, 1510 Кбит/c, 48 Кгц- Английский

General
Unique ID : 195002773483404737122932180925750466328 (0x92B42B069256085FAF90BB63AE085718)
Complete name : D:\Торрент\Смурфики 2.2013.1080p..mkv
Format : Matroska
Format version : Version 2
File size : 9.30 GiB
Duration : 1h 44mn
Overall bit rate : 12.7 Mbps
Encoded date : UTC 2013-11-13 04:23:57
Writing application : mkvmerge v6.3.0 ('You can't stop me!') built on Jun 28 2013 20:09:41
Writing library : libebml v1.3.0 + libmatroska v1.4.0

Video
ID : 1
Format : AVC
Format/Info : Advanced Video Codec
Format profile : High@L4.1
Format settings, CABAC : Yes
Format settings, ReFrames : 4 frames
Codec ID : V_MPEG4/ISO/AVC
Duration : 1h 44mn
Bit rate : 10.3 Mbps
Width : 1 920 pixels
Height : 1 036 pixels
Display aspect ratio : 1.85:1
Frame rate mode : Constant
Frame rate : 23.976 fps
Color space : YUV
Chroma subsampling : 4:2:0
Bit depth : 8 bits
Scan type : Progressive
Bits/(Pixel*Frame) : 0.216
Stream size : 7.54 GiB (81%)
Language : English
Default : Yes
Forced : No

Audio #1
ID : 2
Format : AC-3
Format/Info : Audio Coding 3
Mode extension : CM (complete main)
Format settings, Endianness : Big
Codec ID : A_AC3
Duration : 1h 44mn
Bit rate mode : Constant
Bit rate : 640 Kbps
Channel count : 6 channels
Channel positions : Front: L C R, Side: L R, LFE
Sampling rate : 48.0 KHz
Bit depth : 16 bits
Compression mode : Lossy
Stream size : 480 MiB (5%)
Language : Russian
Default : Yes
Forced : No

Audio #2
ID : 3
Format : DTS
Format/Info : Digital Theater Systems
Mode : 16
Format settings, Endianness : Big
Codec ID : A_DTS
Duration : 1h 44mn
Bit rate mode : Constant
Bit rate : 1 509 Kbps
Channel count : 6 channels
Channel positions : Front: L C R, Side: L R, LFE
Sampling rate : 48.0 KHz
Bit depth : 24 bits
Compression mode : Lossy
Stream size : 1.11 GiB (12%)
Language : English
Default : No
Forced : No

Text #1
ID : 4
Format : PGS
Muxing mode : zlib
Codec ID : S_HDMV/PGS
Codec ID/Info : The same subtitle format used on BDs/HD-DVDs
Language : Russian
Default : No
Forced : No

Text #2
ID : 5
Format : PGS
Muxing mode : zlib
Codec ID : S_HDMV/PGS
Codec ID/Info : The same subtitle format used on BDs/HD-DVDs
Language : English
Default : No
Forced : No

Menu
00:00:00.000 : en:00:00:00.000
00:05:00.133 : en:00:05:00.133
00:11:12.755 : en:00:11:12.755
00:18:14.093 : en:00:18:14.093
00:23:18.522 : en:00:23:18.522
00:27:54.590 : en:00:27:54.590
00:34:25.480 : en:00:34:25.480
00:41:09.342 : en:00:41:09.342
00:46:10.434 : en:00:46:10.434
00:50:59.098 : en:00:50:59.098
00:56:47.863 : en:00:56:47.863
01:02:33.875 : en:01:02:33.875
01:07:06.773 : en:01:07:06.773
01:14:10.196 : en:01:14:10.196
01:21:05.819 : en:01:21:05.819
01:28:24.591 : en:01:28:24.591
info [Профиль]  [ЛС] 

post 14-Ноя-2013 16:33 (спустя 2 минуты) [-]0[+]

Топик был перенесен из форума Оформление раздач (Кинематограф) в форум DVD, HD DVD, Blu-ray, HD Rips

Russian Man
 

L

Пол: Пол:Муж

Стаж: 6 лет 7 месяцев

Сообщений: 10815

Украина
Рейтинг

post 14-Ноя-2013 22:58 (спустя 6 часов) [-]0[+]

[Цитировать] 

Об оформлении раздач:
Добавьте:
  • Отчет Медиаинфо
  • Сэмпл

_________________
info [Профиль]  [ЛС] 

Russian Man

Пол: Пол:Муж

Стаж: 4 года 4 месяца

Сообщений: 166

Россия
Рейтинг

post 15-Ноя-2013 09:57 (спустя 10 часов) [-]-1[+]

[Цитировать] 

L писал(а):

Об оформлении раздач:
Добавьте:
  • Отчет Медиаинфо
  • Сэмпл
добавил!
info [Профиль]  [ЛС] 

winsaaa

Пол: Пол:Муж

Стаж: 3 года 10 месяцев

Сообщений: 665

Россия
Рейтинг

post 16-Ноя-2013 11:34 (спустя 1 день 1 час) [-]0[+]

[Цитировать] 

Офигенно. Интересный фильмец. Спасибо

_________________
OC: Microsoft Windows 8.1 Pro x64
Core: Intel Core 2 Duo E8600 3333MHz
MB: Asus P5QL-PRO
RAM: 6Gb 800MHz
HDD: 6Tb + 3х1Tb (External HDD)
info [Профиль]  [ЛС] 
Показать сообщения:    
Ответить на тему

Текущее время: 08-Дек 00:16

Часовой пояс: GMT + 4



Вы не можете начинать темы
Вы не можете отвечать на сообщения
Вы не можете редактировать свои сообщения
Вы не можете удалять свои сообщения
Вы не можете голосовать в опросах
Вы не можете прикреплять файлы к сообщениям
Вы не можете скачивать файлы