Ошибка

Шоу Уральских пельменей: Смешняги. На Гоа бобра не ищут. Часть 1 & 2 [2013 г., юмористическое шоу, SATRip-AVC]

Ответить на тему
 
Автор Сообщение

Alex Ander

Пол: Пол:Муж

Стаж: 7 лет 5 месяцев

Сообщений: 2379

СССР
Рейтинг

post 04-Ноя-2013 18:05 0[+]

[Цитировать] 

Шоу Уральских пельменей: Смешняги. На Гоа бобра не ищут. Часть 1 & 2

Год выпуска: 2013
Дата эфира: 04.10.2013 и 07.10.2013
Страна: Россия
Жанр: юмористическое шоу
Продолжительность: 2 х ~ 00:48

В ролях:
    Дмитрий Брекоткин, Сергей Ершов, Сергей Исаев, Сергей Калугин, Сергей Минеев, Вячеслав Мясников, Сергей Нетиевский, Александр Попов, Андрей Рожков, Дмитрий Соколов, Максим Ярица, Юлия Матюхина-Михалкова


Описание:
    Летние каникулы закончились, но Уральские пельмени продолжают дарить позитивное настроение и сеять любовь и веселье! На этот раз речь пойдет о летних отпусках и отдыхе в жарких странах. Новый концерт обеспечит тебя хорошим настроением на всю зиму вперед!
Часть 1
    - русские туристы в курортном КПЗ
    - дедушка ищет туалет на пляже
    - мужики на отдыхе в Праге
    - песня "Выборные плакаты"
    - сплетни о юмористический телепередачах последних лет
    - незнакомые мужчина и женщина перепутали свои чемоданы
    - песня про отдых за рубежом
    - разминка
    - ария театра "МужОпера" "Самые популярные курорты среди россиян"
Часть 2
    - песня встречающих в аэропорту
    - постановка со зрителями "Курортный роман"
    - в художественной школе
    - уехав в отпуск, муж с женой заперли отца дома на 2 месяца
    - парень в 2030 год пришёл в библиотеку за книгой
    - несмеющийся зритель
    - песня о школьных придурках
    - блокбастер по мотивам фильмах с Ван-Даммом "Кровавый шпагат"
    - песня, чтобы вернуться снова "Ушедшее лето"


Качество: SATRip
Формат: MKV
Видео кодек: H.264
Аудио кодек: AC3
Видео: 704 x 400 (1.77:1), 25.00 fps, MPEG-4 AVC, ~1 960 kbps avg, 0.279 bit/pixel
Аудио: 48 kHz, AC3 Dolby Digital, 2/0 (L,R) ch, ~192.00 kbps avg
Общее
Уникальный идентификатор : 227344125781787690552259788190489284987 (0xAB08E2CDC63FB6AE9C8B0B0590D4917B)
Полное имя : F:\На Гоа бобра не ищут_Часть 1_ 2013\Na.Goa.bobra.ne.ischut.2013.x264.AVC.mkv
Формат : Matroska
Версия формата : Version 4 / Version 2
Размер файла : 744 Мбайт
Продолжительность : 48 м.
Общий поток : 2160 Кбит/сек
Название фильма : Уральские Пельмени. На Гоа бобра не ищут. Часть 1 / 2013 -=NN@LIFE=-
Дата кодирования : UTC 2013-10-09 22:09:40
Программа кодирования : mkvmerge v6.4.1 ('Omega Point') built on Sep 16 2013 22:05:10
Библиотека кодирования : libebml v1.3.0 + libmatroska v1.4.1

Видео
Идентификатор : 1
Формат : AVC
Формат/Информация : Advanced Video Codec
Профиль формата : High@L4.1
Параметр CABAC формата : Да
Параметр ReFrames формата : 8 кадров
Идентификатор кодека : V_MPEG4/ISO/AVC
Продолжительность : 48 м.
Битрейт : 1965 Кбит/сек
Ширина : 704 пикселя
Высота : 400 пикселей
Соотношение сторон : 16:9
Режим частоты кадров : Постоянный
Частота кадров : 25,000 кадров/сек
Цветовое пространство : YUV
Субдискретизация насыщенности : 4:2:0
Битовая глубина : 8 бит
Тип развёртки : Прогрессивная
Бит/(Пиксели*Кадры) : 0.279
Размер потока : 663 Мбайт (89%)
Заголовок : Rip by nnlabetik
Библиотека кодирования : x264 core 133 r2334 a3ac64b
Настройки программы : cabac=1 / ref=8 / deblock=1:-2:-1 / analyse=0x3:0x113 / me=umh / subme=9 / psy=1 / psy_rd=1.00:0.10 / mixed_ref=1 / me_range=32 / chroma_me=1 / trellis=2 / 8x8dct=1 / cqm=0 / deadzone=21,11 / fast_pskip=1 / chroma_qp_offset=-2 / threads=4 / lookahead_threads=1 / sliced_threads=0 / nr=0 / decimate=1 / interlaced=0 / bluray_compat=0 / constrained_intra=0 / bframes=9 / b_pyramid=2 / b_adapt=2 / b_bias=0 / direct=3 / weightb=1 / open_gop=0 / weightp=2 / keyint=250 / keyint_min=25 / scenecut=40 / intra_refresh=0 / rc_lookahead=50 / rc=2pass / mbtree=0 / bitrate=1965 / ratetol=1.0 / qcomp=0.70 / qpmin=0 / qpmax=69 / qpstep=4 / cplxblur=20.0 / qblur=0.5 / vbv_maxrate=50000 / vbv_bufsize=62500 / nal_hrd=none / ip_ratio=1.40 / pb_ratio=1.30 / aq=1:1.00
Язык : Russian
Default : Да
Forced : Нет

Аудио
Идентификатор : 2
Формат : AC-3
Формат/Информация : Audio Coding 3
Расширение режима : CM (complete main)
Параметр Endianness формата : Big
Идентификатор кодека : A_AC3
Продолжительность : 48 м.
Вид битрейта : Постоянный
Битрейт : 192 Кбит/сек
Каналы : 2 канала
Расположение каналов : Front: L R
Частота : 48,0 КГц
Битовая глубина : 16 бит
Метод сжатия : С потерями
Размер потока : 66,2 Мбайт (9%)
Язык : Russian
Default : Да
Forced : Нет
Общее
Уникальный идентификатор : 210163329047574397013251543170055295856 (0x9E1BFC1FF29C1AA2960BA8AFC5065370)
Полное имя : F:\На Гоа бобра не ищут_Часть 2_ 2013\Na.Goa.bobra.ne.ischut_2.2013.x264.AVC.mkv
Формат : Matroska
Версия формата : Version 4 / Version 2
Размер файла : 744 Мбайт
Продолжительность : 48 м.
Общий поток : 2151 Кбит/сек
Название фильма : Уральские Пельмени. На Гоа бобра не ищут! Часть 2 / 2013 -=NN@LIFE=-
Дата кодирования : UTC 2013-10-09 23:20:21
Программа кодирования : mkvmerge v6.4.1 ('Omega Point') built on Sep 16 2013 22:05:10
Библиотека кодирования : libebml v1.3.0 + libmatroska v1.4.1

Видео
Идентификатор : 1
Формат : AVC
Формат/Информация : Advanced Video Codec
Профиль формата : High@L4.1
Параметр CABAC формата : Да
Параметр ReFrames формата : 8 кадров
Идентификатор кодека : V_MPEG4/ISO/AVC
Продолжительность : 48 м.
Битрейт : 1957 Кбит/сек
Ширина : 704 пикселя
Высота : 400 пикселей
Соотношение сторон : 16:9
Режим частоты кадров : Постоянный
Частота кадров : 25,000 кадров/сек
Цветовое пространство : YUV
Субдискретизация насыщенности : 4:2:0
Битовая глубина : 8 бит
Тип развёртки : Прогрессивная
Бит/(Пиксели*Кадры) : 0.278
Размер потока : 663 Мбайт (89%)
Заголовок : Rip by nnlabetik
Библиотека кодирования : x264 core 133 r2334 a3ac64b
Настройки программы : cabac=1 / ref=8 / deblock=1:-2:-1 / analyse=0x3:0x113 / me=umh / subme=9 / psy=1 / psy_rd=1.00:0.10 / mixed_ref=1 / me_range=32 / chroma_me=1 / trellis=2 / 8x8dct=1 / cqm=0 / deadzone=21,11 / fast_pskip=1 / chroma_qp_offset=-2 / threads=4 / lookahead_threads=1 / sliced_threads=0 / nr=0 / decimate=1 / interlaced=0 / bluray_compat=0 / constrained_intra=0 / bframes=9 / b_pyramid=2 / b_adapt=2 / b_bias=0 / direct=3 / weightb=1 / open_gop=0 / weightp=2 / keyint=250 / keyint_min=25 / scenecut=40 / intra_refresh=0 / rc_lookahead=50 / rc=2pass / mbtree=0 / bitrate=1957 / ratetol=1.0 / qcomp=0.70 / qpmin=0 / qpmax=69 / qpstep=4 / cplxblur=20.0 / qblur=0.5 / vbv_maxrate=50000 / vbv_bufsize=62500 / nal_hrd=none / ip_ratio=1.40 / pb_ratio=1.30 / aq=1:1.00
Язык : Russian
Default : Да
Forced : Нет

Аудио
Идентификатор : 2
Формат : AC-3
Формат/Информация : Audio Coding 3
Расширение режима : CM (complete main)
Параметр Endianness формата : Big
Идентификатор кодека : A_AC3
Продолжительность : 48 м.
Вид битрейта : Постоянный
Битрейт : 192 Кбит/сек
Каналы : 2 канала
Расположение каналов : Front: L R
Частота : 48,0 КГц
Битовая глубина : 16 бит
Метод сжатия : С потерями
Размер потока : 66,4 Мбайт (9%)
Язык : Russian
Default : Да
Forced : Нет
info [Профиль]  [ЛС] 

lampard960

Пол: Пол:Муж

Стаж: 4 года 11 месяцев

Сообщений: 619

Ангилья
Рейтинг

post 04-Ноя-2013 18:55 (спустя 49 минут) [-]0[+]

[Цитировать] 

благодарю

_________________
info [Профиль]  [ЛС] 
Показать сообщения:    
Ответить на тему

Текущее время: 08-Дек 11:56

Часовой пояс: GMT + 4



Вы не можете начинать темы
Вы не можете отвечать на сообщения
Вы не можете редактировать свои сообщения
Вы не можете удалять свои сообщения
Вы не можете голосовать в опросах
Вы не можете прикреплять файлы к сообщениям
Вы не можете скачивать файлы