Ошибка

До окончания фрилича осталось:


Шоу Уральских пельменей: Смешняги. Люди в белых зарплатах. Часть 1 & 2 [2013 г., юмористическое шоу, SATRip-AVC]

Ответить на тему
 
Автор Сообщение

Alex Ander

Пол: Пол:Муж

Стаж: 7 лет 5 месяцев

Сообщений: 2379

СССР
Рейтинг

post 03-Ноя-2013 18:46 0[+]

[Цитировать] 

Шоу Уральских пельменей: Смешняги. Люди в белых зарплатах. Часть 1 & 2

Год выпуска: 2013
Дата эфира: 18.10.2013 и 01.11.2013
Страна: Россия
Жанр: юмористическое шоу
Продолжительность: 2 х ~ 00:48

В ролях:
    Дмитрий Брекоткин, Сергей Ершов, Сергей Исаев, Сергей Калугин, Сергей Минеев, Вячеслав Мясников, Сергей Нетиевский, Александр Попов, Андрей Рожков, Дмитрий Соколов, Максим Ярица, Юлия Матюхина-Михалкова


Описание:
    Люди в белых зарплатах - ведь каждый из нас знает что такое, больница или поликлиника, кто такие врачи и медсестры, чем нас лечат и как. Команда Уральские пельмени знают об этом на много больше и покажут нам всю подноготную в юмористическом жанре, не в обиду медперсоналу. Ведь порой врачи, как говорят, берут "белую зарплату". Об этом мы узнаем в новом шоу Уральских пельменей: "Люди в белых зарплатах".
Часть 1
    - денежный разговор в семье
    - получение зарплаты в кассе
    - разные зарплаты разных людей
    - песня про почту
    - рабочий день офисного клерка
    - учитель физкультуры выиграл в лотерею огромные деньги
    - постановка финансовозависимого театра "МужОпера" "Неприличные наличные"
    - бабушка Игоря укладывает семью спать
Часть 2
    - доработка годового бюджета в областной администрации
    - у билетной кассы в цирк
    - счастливый ребенок из очереди в детский сад через 16 лет
    - получение подписей на законодательные документы
    - песня-ответ от того самого мужчины певице Натали
    - бабки у раскрытого чемодана бабок
    - моряки-подводники о проблемах мирового климата
    - песня о бюджетниках


Качество: SATRip
Формат: MKV
Видео кодек: H.264
Аудио кодек: AC3
Видео: 704 x 400 (1.77:1), 25.00 fps, MPEG-4 AVC, ~1 950 kbps avg, 0.277 bit/pixel
Аудио: 48 kHz, AC3 Dolby Digital, 2/0 (L,R) ch, ~192.00 kbps avg
Общее
Уникальный идентификатор : 244715745554074069164144272808570208605 (0xB81A89C8F435D8EEBAB37027F8C3415D)
Полное имя : F:\Люди в белых зарплатах_Часть 1_2013\Lyudi.v.belyx.zarplatax_1.2013.x264.AVC.mkv
Формат : Matroska
Версия формата : Version 4 / Version 2
Размер файла : 744 Мбайт
Продолжительность : 48 м.
Общий поток : 2134 Кбит/сек
Название фильма : Уральские Пельмени. Люди в белых зарплатах. Часть 1 / 2013 -=NN@LIFE=-
Дата кодирования : UTC 2013-10-19 01:21:40
Программа кодирования : mkvmerge v6.4.1 ('Omega Point') built on Sep 16 2013 22:05:10
Библиотека кодирования : libebml v1.3.0 + libmatroska v1.4.1

Видео
Идентификатор : 1
Формат : AVC
Формат/Информация : Advanced Video Codec
Профиль формата : High@L4.1
Параметр CABAC формата : Да
Параметр ReFrames формата : 8 кадров
Идентификатор кодека : V_MPEG4/ISO/AVC
Продолжительность : 48 м.
Битрейт : 1940 Кбит/сек
Ширина : 704 пикселя
Высота : 400 пикселей
Соотношение сторон : 16:9
Режим частоты кадров : Постоянный
Частота кадров : 25,000 кадров/сек
Цветовое пространство : YUV
Субдискретизация насыщенности : 4:2:0
Битовая глубина : 8 бит
Тип развёртки : Прогрессивная
Бит/(Пиксели*Кадры) : 0.276
Размер потока : 662 Мбайт (89%)
Заголовок : Rip by nnlabetik
Библиотека кодирования : x264 core 133 r2334 a3ac64b
Настройки программы : cabac=1 / ref=8 / deblock=1:-2:-1 / analyse=0x3:0x113 / me=umh / subme=9 / psy=1 / psy_rd=1.00:0.10 / mixed_ref=1 / me_range=32 / chroma_me=1 / trellis=2 / 8x8dct=1 / cqm=0 / deadzone=21,11 / fast_pskip=1 / chroma_qp_offset=-2 / threads=4 / lookahead_threads=1 / sliced_threads=0 / nr=0 / decimate=1 / interlaced=0 / bluray_compat=0 / constrained_intra=0 / bframes=9 / b_pyramid=2 / b_adapt=2 / b_bias=0 / direct=3 / weightb=1 / open_gop=0 / weightp=2 / keyint=250 / keyint_min=25 / scenecut=40 / intra_refresh=0 / rc_lookahead=50 / rc=2pass / mbtree=0 / bitrate=1940 / ratetol=1.0 / qcomp=0.70 / qpmin=0 / qpmax=69 / qpstep=4 / cplxblur=20.0 / qblur=0.5 / vbv_maxrate=50000 / vbv_bufsize=62500 / nal_hrd=none / ip_ratio=1.40 / pb_ratio=1.30 / aq=1:1.00
Язык : Russian
Default : Да
Forced : Нет

Аудио
Идентификатор : 2
Формат : AC-3
Формат/Информация : Audio Coding 3
Расширение режима : CM (complete main)
Параметр Endianness формата : Big
Идентификатор кодека : A_AC3
Продолжительность : 48 м.
Вид битрейта : Постоянный
Битрейт : 192 Кбит/сек
Каналы : 2 канала
Расположение каналов : Front: L R
Частота : 48,0 КГц
Битовая глубина : 16 бит
Метод сжатия : С потерями
Размер потока : 66,9 Мбайт (9%)
Язык : Russian
Default : Да
Forced : Нет
Общее
Уникальный идентификатор : 230406526466155230824802203448232647444 (0xAD56AED09739AAAEA637D61C4A201B14)
Полное имя : C:\Lyudi v belyx zarplatax 2013\Lyudi.v.belyx.zarplatax_2.2013.x264.AVC.mkv
Формат : Matroska
Версия формата : Version 4 / Version 2
Размер файла : 746 Мбайт
Продолжительность : 48 м.
Общий поток : 2148 Кбит/сек
Название фильма : Уральские Пельмени. Люди в белых зарплатах. Часть 2 / 2013 -=NN@LIFE=-
Дата кодирования : UTC 2013-11-01 20:27:40
Программа кодирования : mkvmerge v6.5.0 ('Isn't she lovely') built on Oct 20 2013 12:50:05
Библиотека кодирования : libebml v1.3.0 + libmatroska v1.4.1

Видео
Идентификатор : 1
Формат : AVC
Формат/Информация : Advanced Video Codec
Профиль формата : High@L4.1
Параметр CABAC формата : Да
Параметр ReFrames формата : 8 кадров
Идентификатор кодека : V_MPEG4/ISO/AVC
Продолжительность : 48 м.
Битрейт : 1953 Кбит/сек
Ширина : 704 пикселя
Высота : 400 пикселей
Соотношение сторон : 16:9
Режим частоты кадров : Постоянный
Частота кадров : 25,000 кадров/сек
Цветовое пространство : YUV
Субдискретизация насыщенности : 4:2:0
Битовая глубина : 8 бит
Тип развёртки : Прогрессивная
Бит/(Пиксели*Кадры) : 0.277
Размер потока : 664 Мбайт (89%)
Библиотека кодирования : x264 core 133 r2334 a3ac64b
Настройки программы : cabac=1 / ref=8 / deblock=1:-2:-1 / analyse=0x3:0x113 / me=umh / subme=9 / psy=1 / psy_rd=1.00:0.10 / mixed_ref=1 / me_range=32 / chroma_me=1 / trellis=2 / 8x8dct=1 / cqm=0 / deadzone=21,11 / fast_pskip=1 / chroma_qp_offset=-2 / threads=4 / lookahead_threads=1 / sliced_threads=0 / nr=0 / decimate=1 / interlaced=0 / bluray_compat=0 / constrained_intra=0 / bframes=8 / b_pyramid=2 / b_adapt=2 / b_bias=0 / direct=3 / weightb=1 / open_gop=0 / weightp=2 / keyint=250 / keyint_min=25 / scenecut=40 / intra_refresh=0 / rc_lookahead=50 / rc=2pass / mbtree=0 / bitrate=1953 / ratetol=1.0 / qcomp=0.70 / qpmin=0 / qpmax=69 / qpstep=4 / cplxblur=20.0 / qblur=0.5 / vbv_maxrate=50000 / vbv_bufsize=62500 / nal_hrd=none / ip_ratio=1.40 / pb_ratio=1.30 / aq=1:1.00
Язык : Russian
Default : Да
Forced : Нет

Аудио
Идентификатор : 2
Формат : AC-3
Формат/Информация : Audio Coding 3
Расширение режима : CM (complete main)
Параметр Endianness формата : Big
Идентификатор кодека : A_AC3
Продолжительность : 48 м.
Вид битрейта : Постоянный
Битрейт : 192 Кбит/сек
Каналы : 2 канала
Расположение каналов : Front: L R
Частота : 48,0 КГц
Битовая глубина : 16 бит
Метод сжатия : С потерями
Размер потока : 66,7 Мбайт (9%)
Язык : Russian
Default : Да
Forced : Нет
info [Профиль]  [ЛС] 
Показать сообщения:    
Ответить на тему

Текущее время: 10-Дек 05:14

Часовой пояс: GMT + 4



Вы не можете начинать темы
Вы не можете отвечать на сообщения
Вы не можете редактировать свои сообщения
Вы не можете удалять свои сообщения
Вы не можете голосовать в опросах
Вы не можете прикреплять файлы к сообщениям
Вы не можете скачивать файлы