Ошибка

Турбо / Turbo (Дэвид Сорен) [2013 г., мультфильм, комедия, приключения, семейный, спорт, BDRemux 1080p]

Ответить на тему
 
Автор Сообщение

Basketballman

Пол: Пол:Муж

Стаж: 7 лет 1 месяц

Сообщений: 280

Россия
Рейтинг

post 28-Окт-2013 13:01 1[+]

[Цитировать] 

Турбо / Turbo

Год выпуска: 2013
Страна: США
Жанр: мультфильм, комедия, приключения, семейный, спорт
Продолжительность: 01:35:40
Перевод: профессиональный (полное дублирование) [лицензия]
Режиссер:
  • Дэвид Сорен
В ролях:
  • Райан Рейнольдс, Пол Джаматти, Майкл Пенья, Луис Гузман, Билл Хейдер, Ричард Дженкинс, Кен Жонг, Мишель Родригез, Майя Рудольф, Бен Шварц

Описание: Ничто так не раздражает темпераментную, мечтающую о скорости улитку с говорящим именем Турбо, как неспешная жизнь, медленные разговоры, заторможенные соседи. Пусть наш герой выглядит большим чудаком в этом вялом, неторопливом мире, пусть он идёт вопреки закону природы о «рождённом ползать», но если в сердце горит «пламенный мотор», а душа верит в чудо, оно просто не имеет права не произойти!


Качество: BD-Remux 1080p
Формат: MKV
Видео кодек: MPEG-4
Аудио кодек: AC3, DTS-HD
Видео: 1920x1080, 23.976 fps, 24.1 Mбит/с
Аудио: 1) Russian: DTS, 6 ch, 768 Kbps
2) Ukrainian: AC3, 6 ch, 448 Kbps
3) English: DTS-HD MA, 8 ch, 4793 Kbps
Субтитры: русские, украинские, английские

Sample
General
Unique ID : 217655411599855323509345068999626514418 (0xA3BEE85055A9B11A9A21A8AB4E70DFF2)
Complete name : C:\Кино\Turbo.2013.BD-Remux.mkv
Format : Matroska
Format version : Version 2
File size : 20.1 GiB
Duration : 1h 35mn
Overall bit rate mode : Variable
Overall bit rate : 30.1 Mbps
Movie name : Respector
Encoded date : UTC 2013-10-27 10:06:17
Writing application : mkvmerge v5.5.0 ('Healer') built on Apr 24 2012 23:47:03
Writing library : libebml v1.2.3 + libmatroska v1.3.0

Video
ID : 1
Format : AVC
Format/Info : Advanced Video Codec
Format profile : High@L4.1
Format settings, CABAC : Yes
Format settings, ReFrames : 4 frames
Codec ID : V_MPEG4/ISO/AVC
Duration : 1h 35mn
Bit rate mode : Variable
Maximum bit rate : 32.0 Mbps
Width : 1 920 pixels
Height : 1 080 pixels
Display aspect ratio : 16:9
Frame rate mode : Constant
Frame rate : 23.976 fps
Color space : YUV
Chroma subsampling : 4:2:0
Bit depth : 8 bits
Scan type : Progressive
Language : English
Default : Yes
Forced : No

Audio #1
ID : 2
Format : DTS
Format/Info : Digital Theater Systems
Mode : 16
Format settings, Endianness : Big
Codec ID : A_DTS
Duration : 1h 35mn
Bit rate mode : Constant
Bit rate : 768 Kbps
Channel count : 6 channels
Channel positions : Front: L C R, Side: L R, LFE
Sampling rate : 48.0 KHz
Bit depth : 24 bits
Compression mode : Lossy
Stream size : 526 MiB (3%)
Language : Russian
Default : Yes
Forced : Yes

Audio #2
ID : 3
Format : AC-3
Format/Info : Audio Coding 3
Mode extension : CM (complete main)
Format settings, Endianness : Big
Codec ID : A_AC3
Duration : 1h 35mn
Bit rate mode : Constant
Bit rate : 448 Kbps
Channel count : 6 channels
Channel positions : Front: L C R, Side: L R, LFE
Sampling rate : 48.0 KHz
Bit depth : 16 bits
Compression mode : Lossy
Stream size : 307 MiB (1%)
Language : Ukrainian
Default : No
Forced : No

Audio #3
ID : 4
Format : DTS
Format/Info : Digital Theater Systems
Format profile : MA / Core
Mode : 16
Format settings, Endianness : Big
Codec ID : A_DTS
Duration : 1h 35mn
Bit rate mode : Variable
Bit rate : Unknown / 1 509 Kbps
Channel count : 8 channels / 6 channels
Channel positions : Front: L C R, Side: L R, Back: L R, LFE / Front: L C R, Side: L R, LFE
Sampling rate : 48.0 KHz
Bit depth : 24 bits
Compression mode : Lossless / Lossy
Language : English
Default : No
Forced : No

Text #1
ID : 5
Format : UTF-8
Codec ID : S_TEXT/UTF8
Codec ID/Info : UTF-8 Plain Text
Language : Russian
Default : No
Forced : No

Text #2
ID : 6
Format : UTF-8
Codec ID : S_TEXT/UTF8
Codec ID/Info : UTF-8 Plain Text
Language : Ukrainian
Default : No
Forced : No

Text #3
ID : 7
Format : UTF-8
Codec ID : S_TEXT/UTF8
Codec ID/Info : UTF-8 Plain Text
Language : English
Default : No
Forced : No

Menu
00:00:00.000 : :Chapter 01
00:03:29.626 : :Chapter 02
00:06:39.857 : :Chapter 03
00:08:34.222 : :Chapter 04
00:10:13.863 : :Chapter 05
00:13:25.095 : :Chapter 06
00:17:15.784 : :Chapter 07
00:21:53.353 : :Chapter 08
00:25:42.707 : :Chapter 09
00:28:24.494 : :Chapter 10
00:30:17.899 : :Chapter 11
00:34:20.892 : :Chapter 12
00:38:20.339 : :Chapter 13
00:40:45.109 : :Chapter 14
00:44:40.219 : :Chapter 15
00:47:40.941 : :Chapter 16
00:49:29.925 : :Chapter 17
00:53:28.955 : :Chapter 18
00:57:00.750 : :Chapter 19
00:59:38.825 : :Chapter 20
01:02:05.972 : :Chapter 21
01:05:50.780 : :Chapter 22
01:08:07.166 : :Chapter 23
01:13:08.801 : :Chapter 24
01:16:26.790 : :Chapter 25
01:19:48.450 : :Chapter 26
01:23:26.126 : :Chapter 27
01:26:29.726 : :Chapter 28
01:35:40.484 : :Chapter 29
info [Профиль]  [ЛС] 

ramz

Пол: Пол:Муж

Стаж: 7 лет 2 месяца

Сообщений: 97

Россия
Рейтинг

post 28-Окт-2013 16:31 (спустя 3 часа) [-]2[+]

[Цитировать] 

когда в 3d ждать ?

_________________
i7 960 3.2ghz
MSI X58A-GD65
12Gb ddr3 12800
Sapphire R9 290
Thermaltake 850w
info [Профиль]  [ЛС] 
Показать сообщения:    
Ответить на тему

Текущее время: 05-Дек 12:36

Часовой пояс: GMT + 4



Вы не можете начинать темы
Вы не можете отвечать на сообщения
Вы не можете редактировать свои сообщения
Вы не можете удалять свои сообщения
Вы не можете голосовать в опросах
Вы не можете прикреплять файлы к сообщениям
Вы не можете скачивать файлы