Ошибка

Орел и решка (Сезоны 1-7, Серии 1-101) [2011-2013 г., ТВ-Шоу, SATRip]

Ответить на тему
 
Автор Сообщение

CooL

Пол: Пол:Муж

Стаж: 6 лет 9 месяцев

Сообщений: 1235

СССР
Рейтинг

post 19-Окт-2013 19:36 6[+]

[Цитировать] 

pic="http://s001.youpic.su/pictures/1382126400/0dd3a0b6401c671484edf6678f00e71e.png"



Орел и решка
Сезоны 1-7

Год выпуска: 2011-2013
Страна: Украина
Жанр: ТВ-Шоу
Серия: 1-101
Сезон: 1-7
Кол-во серий:
  • 1 сезон : 1-15 (из 15)
  • 2 сезон : 1-17 (из 17)
  • 3 сезон : 1-16 (из 16)
  • 4 сезон : 1-17 (из 17)
  • 5 сезон : 1-8 (из 8)
  • 6 сезон : 1-8 (из 8)
  • 7 сезон : 1-20 (из 20)

Продолжительность: ~ 00:45:00
Режиссер:
  • Евгений Синельников, Антон Щербаков, Василий Хомко
В ролях:
  • Алан и Жанна Бадоевы, Андрей Бедняков, Леся Никитюк, Настя Короткая

Описание: Каждые выходные двое ведущих отправляются в различные города мира. По правилам программы, один ведущий должен прожить субботу и воскресенье на 100 долларов (для европейских стран — 70 евро или больше, в соответствии с текущим обменным курсом), а второй может тратить неограниченные средства, которые хранятся на золотой карте. Чтобы решить, кто из них будет жить как миллионер, а кто будет учиться выживанию, ведущие перед каждым путешествием бросают монету, и каждый раз всё решает орёл или решка…
Качество: SATRip
Формат: AVI
Видео кодек: Xvid
Аудио кодек: MP3
Данные видео 1,3,4,5,6,7 сезон: 704x384 (1.83:1), 25 fps, XviD MPEG-4 ~1098 kbps avg, 0.16 bit/pixel
Данные видео 2 сезон: 720x400 (1.80:1), 25 fps, XviD MPEG-4 ~1503 kbps avg, 0.21 bit/pixel
Данные аудио : 48 kHz, MPEG Layer 3, 2 ch, ~128.00 kbps avg [RUS]
Видео
Идентификатор : 0
Формат : MPEG-4 Visual
Профиль формата : Advanced Simple@L5
Параметр BVOP формата : 2
Параметр QPel формата : Нет
Параметр GMC формата : Без точки перехода
Параметр матрицы формата : Default (MPEG)
Идентификатор кодека : XVID
Идентификатор кодека/Подсказка : XviD
Продолжительность : 44 м.
Битрейт : 1099 Кбит/сек
Ширина : 704 пикселя
Высота : 384 пикселя
Соотношение сторон : 1,85:1
Частота кадров : 25,000 кадров/сек
Цветовое пространство : YUV
Субдискретизация насыщенности : 4:2:0
Битовая глубина : 8 бит
Тип развёртки : Прогрессивная
Метод сжатия : С потерями
Бит/(Пиксели*Кадры) : 0.163
Размер потока : 352 Мбайт (88%)
Библиотека кодирования : XviD 58

Аудио
Идентификатор : 1
Формат : MPEG Audio
Версия формата : Version 1
Профиль формата : Layer 3
Режим : Joint stereo
Расширение режима : MS Stereo
Идентификатор кодека : 55
Идентификатор кодека/Подсказка : MP3
Продолжительность : 44 м.
Вид битрейта : Переменный
Битрейт : 135 Кбит/сек
Номинальный битрейт : 128 Кбит/сек
Каналы : 2 канала
Частота : 48,0 КГц
Метод сжатия : С потерями
Размер потока : 43,1 Мбайт (11%)
Выравнивание : Соединение по промежуткам
Продолжительность промежутка : 24 мс. (0,60 видеокадр)
Время предзагрузки промежутка : 489 мс.
Библиотека кодирования : LAME3.90.
Настройки программы : -m j -V 4 -q 2 -lowpass 17.6 --abr 128
Видео
Идентификатор : 0
Формат : MPEG-4 Visual
Профиль формата : Advanced Simple@L5
Параметр BVOP формата : 2
Параметр QPel формата : Нет
Параметр GMC формата : Без точки перехода
Параметр матрицы формата : Default (MPEG)
Режим смешивания : Сжатый битовый поток
Идентификатор кодека : XVID
Идентификатор кодека/Подсказка : XviD
Продолжительность : 44 м.
Битрейт : 1509 Кбит/сек
Ширина : 720 пикселей
Высота : 400 пикселей
Соотношение сторон : 16:9
Частота кадров : 25,000 кадров/сек
Цветовое пространство : YUV
Субдискретизация насыщенности : 4:2:0
Битовая глубина : 8 бит
Тип развёртки : Прогрессивная
Метод сжатия : С потерями
Бит/(Пиксели*Кадры) : 0.210
Размер потока : 482 Мбайт (92%)
Библиотека кодирования : XviD 64

Аудио
Идентификатор : 1
Формат : MPEG Audio
Версия формата : Version 1
Профиль формата : Layer 3
Режим : Joint stereo
Идентификатор кодека : 55
Идентификатор кодека/Подсказка : MP3
Продолжительность : 44 м.
Вид битрейта : Постоянный
Битрейт : 128 Кбит/сек
Каналы : 2 канала
Частота : 48,0 КГц
Метод сжатия : С потерями
Размер потока : 40,9 Мбайт (8%)
Выравнивание : Соединение по промежуткам
Продолжительность промежутка : 40 мс. (1,00 видеокадр)
Время предзагрузки промежутка : 504 мс.
Библиотека кодирования : LAME3.90.3

1 сезон
http://s001.youpic.su/pictures/1382126400/69bdb715c4e6c6ad83a4831df240da37.png 
2 сезон
http://s001.youpic.su/pictures/1382126400/6153ebb25298474b8758e4bc3d955575.png 
3 сезон
http://s001.youpic.su/pictures/1382126400/7e4a763f00b6426681bb6dbea5a0ecad.png 
4 сезон
http://s001.youpic.su/pictures/1382126400/ec19c57867f3f2d0cf78f67ddb42eaa7.png 
5 сезон
http://s001.youpic.su/pictures/1382126400/bd27b4b9032b75b67d1f5822e1433c0a.png 
6 сезон
http://s001.youpic.su/pictures/1382126400/94163a70cbf9f88fd48dd9f17d13e75a.png 
7 сезон
http://s001.youpic.su/pictures/1388610000/dd8ff9ba8ee18aa73f79775e6c15c3ed.png 

info [Профиль]  [ЛС] 

igromanNew1

Пол: Пол:Муж

Стаж: 7 лет 1 месяц

Сообщений: 62

Россия
Рейтинг

post 20-Окт-2013 02:43 (спустя 7 часов) [-]4[+]

[Цитировать] 

Отличная передача всем советую!
info [Профиль]  [ЛС] 

MiloRU

Пол: Пол:Муж

Стаж: 6 лет 7 месяцев

Сообщений: 84

Предупреждений: 1

Россия
Рейтинг

post 20-Окт-2013 08:03 (спустя 5 часов) [-]0[+]

[Цитировать] 

Я рекомендую!
info [Профиль]  [ЛС] 

Hunter59rus

Пол: Пол:Муж

Стаж: 7 лет 8 месяцев

Сообщений: 2441

Предупреждений: 3

Сейшельские острова
Рейтинг

post 20-Окт-2013 10:58 (спустя 2 часа 54 минуты) [-]3[+]

[Цитировать] 

Передача супер! Красивые места, интересные факты и шутки добрые).

Цитата:

Жанна Бадоева, Андрей Бедняков
Тру ребята.

Цитата:

Алан Бадоев, Леся Никитюк, Настя Короткая
Эти унылые.

_________________
info [Профиль]  [ЛС] 

cupum2200

Стаж: 4 года 1 месяц

Сообщений: 6

Рейтинг

post 20-Окт-2013 13:33 (спустя 2 часа 35 минут) [-]0[+]

[Цитировать] 

Hunter59rus
согласен на все 100% !
info [Профиль]  [ЛС] 

rakkot

Пол: Пол:Муж

Стаж: 6 лет 10 месяцев

Сообщений: 72

Рейтинг

post 20-Окт-2013 15:17 (спустя 1 час 43 минуты) [-]1[+]

[Цитировать] 

По-моему у кого то лучшая в мире работа Улыбаюсь))
info [Профиль]  [ЛС] 

CooL

Пол: Пол:Муж

Стаж: 6 лет 9 месяцев

Сообщений: 1235

СССР
Рейтинг

post 02-Янв-2014 02:54 (спустя 2 месяца 12 дней) [-]0[+]

[Цитировать] 

Раздача обновлена добавлены
9-20 серии
7 сезона
info [Профиль]  [ЛС] 

FinalLench

Пол: Пол:Муж

Стаж: 7 лет

Сообщений: 541

Предупреждений: 1

Рейтинг

post 02-Янв-2014 13:17 (спустя 10 часов) [-]0[+]

[Цитировать] 

Бадоева - няша kolob_171
info [Профиль]  [ЛС] 

lumbersexual

Пол: Пол:Муж

Стаж: 6 лет 4 месяца

Сообщений: 6

Антарктида
Рейтинг

post 02-Янв-2014 13:27 (спустя 9 минут) [-]1[+]

[Цитировать] 

Хорошее шоу, жаль закончилось =(

_________________
info [Профиль]  [ЛС] 

DiMoN 123

Пол: Пол:Муж

Стаж: 6 лет 8 месяцев

Сообщений: 111

Россия
Рейтинг

post 02-Янв-2014 15:46 (спустя 2 часа 19 минут) [-]0[+]

[Цитировать] 

Отличная передача. Смотрится на ура, особенно, когда обозревают твой родной город.
info [Профиль]  [ЛС] 

Phenom2013

Пол: Пол:Муж

Стаж: 3 года 11 месяцев

Сообщений: 152

СССР
Рейтинг

post 05-Янв-2014 13:50 (спустя 2 дня 22 часа) [-]1[+]

[Цитировать] 

Shamaaan писал(а):

Хорошее шоу, жаль закончилось =(
Рано или поздно у всех деньги кончаются kolob_107

_________________
anime_111 anime_62 anime_98 anime_4 anime_119
info [Профиль]  [ЛС] 
Показать сообщения:    
Ответить на тему

Текущее время: 08-Дек 13:58

Часовой пояс: GMT + 4



Вы не можете начинать темы
Вы не можете отвечать на сообщения
Вы не можете редактировать свои сообщения
Вы не можете удалять свои сообщения
Вы не можете голосовать в опросах
Вы не можете прикреплять файлы к сообщениям
Вы не можете скачивать файлы