Ошибка

Призрачный патруль / R.I.P.D. (Роберт Швентке ) [2013 г., фэнтези, боевик, комедия, криминал, BDRemux 1080p]

Ответить на тему
 
Автор Сообщение

Basketballman

Пол: Пол:Муж

Стаж: 7 лет 1 месяц

Сообщений: 280

Россия
Рейтинг

post 19-Окт-2013 04:04 3[+]

[Цитировать] 

Призрачный патруль / R.I.P.D.

Год выпуска: 2013
Страна: США
Жанр: фэнтези, боевик, комедия, криминал
Продолжительность: 01:35:56
Перевод: профессиональный (полное дублирование) [лицензия]
Режиссер:
  • Роберт Швентке
В ролях:
  • Райан Рейнольдс, Джефф Бриджес, Кевин Бэйкон, Мэри-Луиз Паркер, Стефани Зостак, Роберт Неппер, Мариса Миллер, Джеймс Хонг, Майк О’Мэлли, Девин Рэтрей

Описание: Детективы из загробного департамента расследуют преступления по ту сторону могилы и гоняются за не в меру ретивой нечистью. Молодой коп, после гибели от руки неизвестного злоумышленника угодивший в мир иной, в обмен на помощь при расследовании собственного убийства обязуется следующие сто лет посвятить службе в R.I.P.D. и, получив в напарники брутального стрелка эпохи вестернов, выходит на борьбу с неупокоившимся злом.

Качество: BD-Remux 1080p
Формат: MKV
Видео кодек: MPEG-4
Аудио кодек: AC3, DTS-HD
Видео: 1920x1080, 23.976 fps, 32.0 Mбит/с
Аудио: 1) Russian: DTS, 6 ch, 768 Kbps
2) English: DTS-HD MA, 6 ch, 3924 Kbps
3) English: AC3, 2 ch, 192 Kbps
Субтитры: русские, английские, украинские

Sample
General
Unique ID : 173754088061695219414729845390095176696 (0x82B7D1F31B71C3C19DF75EBF772C53F8)
Complete name : D:\Кино\R.I.P.D.2013.D.BD-Remux (1080p).mkv
Format : Matroska
Format version : Version 2
File size : 24.6 GiB
Duration : 1h 35mn
Overall bit rate mode : Variable
Overall bit rate : 36.8 Mbps
Movie name : R.I.P.D. (2013) - Release for HDCLUB
Encoded date : UTC 2013-11-06 22:17:16
Writing application : mkvmerge v6.3.0 ('You can't stop me!') built on Jun 28 2013 20:09:41
Writing library : libebml v1.3.0 + libmatroska v1.4.0

Video
ID : 1
Format : AVC
Format/Info : Advanced Video Codec
Format profile : High@L4.1
Format settings, CABAC : Yes
Format settings, ReFrames : 4 frames
Format settings, GOP : M=3, N=12
Codec ID : V_MPEG4/ISO/AVC
Duration : 1h 35mn
Bit rate mode : Variable
Maximum bit rate : 35.0 Mbps
Width : 1 920 pixels
Height : 1 080 pixels
Display aspect ratio : 16:9
Frame rate mode : Constant
Frame rate : 23.976 fps
Color space : YUV
Chroma subsampling : 4:2:0
Bit depth : 8 bits
Scan type : Progressive
Default : Yes
Forced : No

Audio #1
ID : 2
Format : DTS
Format/Info : Digital Theater Systems
Mode : 16
Format settings, Endianness : Big
Codec ID : A_DTS
Duration : 1h 35mn
Bit rate mode : Constant
Bit rate : 768 Kbps
Channel count : 6 channels
Channel positions : Front: L C R, Side: L R, LFE
Sampling rate : 48.0 KHz
Bit depth : 24 bits
Compression mode : Lossy
Stream size : 527 MiB (2%)
Title : DTS 5.1 @ 768 kbps - DUB, Blu-ray CEE
Language : Russian
Default : Yes
Forced : No

Audio #2
ID : 3
Format : DTS
Format/Info : Digital Theater Systems
Format profile : MA / Core
Mode : 16
Format settings, Endianness : Big
Codec ID : A_DTS
Duration : 1h 35mn
Bit rate mode : Variable
Bit rate : Unknown / 1 509 Kbps
Channel count : 6 channels
Channel positions : Front: L C R, Side: L R, LFE
Sampling rate : 48.0 KHz
Bit depth : 24 bits
Compression mode : Lossless / Lossy
Language : English
Default : No
Forced : No

Audio #3
ID : 4
Format : AC-3
Format/Info : Audio Coding 3
Format profile : Dolby Digital
Mode extension : CM (complete main)
Format settings, Endianness : Big
Codec ID : A_AC3
Duration : 1h 35mn
Bit rate mode : Constant
Bit rate : 192 Kbps
Channel count : 2 channels
Channel positions : Front: L R
Sampling rate : 48.0 KHz
Bit depth : 16 bits
Compression mode : Lossy
Stream size : 132 MiB (1%)
Title : AC3 2.0 @ 192 kbps - Descriptive
Language : English
Default : No
Forced : No

Text #1
ID : 5
Format : UTF-8
Codec ID : S_TEXT/UTF8
Codec ID/Info : UTF-8 Plain Text
Title : Forced, Blu-ray CEE
Language : Russian
Default : Yes
Forced : No

Text #2
ID : 6
Format : UTF-8
Codec ID : S_TEXT/UTF8
Codec ID/Info : UTF-8 Plain Text
Title : Blu-ray CEE
Language : Russian
Default : No
Forced : No

Text #3
ID : 7
Format : UTF-8
Codec ID : S_TEXT/UTF8
Codec ID/Info : UTF-8 Plain Text
Title : Blu-ray CEE
Language : Ukrainian
Default : No
Forced : No

Text #4
ID : 8
Format : UTF-8
Codec ID : S_TEXT/UTF8
Codec ID/Info : UTF-8 Plain Text
Language : English
Default : No
Forced : No

Text #5
ID : 9
Format : UTF-8
Codec ID : S_TEXT/UTF8
Codec ID/Info : UTF-8 Plain Text
Title : SDH
Language : English
Default : No
Forced : No

Text #6
ID : 10
Format : UTF-8
Codec ID : S_TEXT/UTF8
Codec ID/Info : UTF-8 Plain Text
Title : SDH-COLORED
Language : English
Default : No
Forced : No

Menu
00:00:00.000 : en:00:00:00.000
00:03:57.112 : en:00:03:57.112
00:09:13.136 : en:00:09:13.136
00:14:30.578 : en:00:14:30.578
00:17:58.411 : en:00:17:58.411
00:22:30.599 : en:00:22:30.599
00:27:09.503 : en:00:27:09.503
00:33:33.511 : en:00:33:33.511
00:38:46.157 : en:00:38:46.157
00:43:27.647 : en:00:43:27.647
00:46:31.747 : en:00:46:31.747
00:52:04.038 : en:00:52:04.038
00:55:52.099 : en:00:55:52.099
01:02:15.982 : en:01:02:15.982
01:07:01.100 : en:01:07:01.100
01:10:35.690 : en:01:10:35.690
01:13:16.309 : en:01:13:16.309
01:17:52.126 : en:01:17:52.126
01:23:00.934 : en:01:23:00.934
01:27:27.909 : en:01:27:27.909
info [Профиль]  [ЛС] 

duxifat

Стаж: 3 года 4 месяца

Сообщений: 1

Израиль
Рейтинг

post 19-Окт-2013 13:24 (спустя 9 часов) [-]0[+]

[Цитировать] 

Раздача почти мертвая. 100 kb/s
info [Профиль]  [ЛС] 

Driver

Пол: Пол:Муж

Стаж: 6 лет 2 месяца

Сообщений: 2259

Россия
Рейтинг

post 20-Окт-2013 14:37 (спустя 1 день 1 час) [-]1[+]

[Цитировать] 

duxifat писал(а):

Раздача почти мертвая. 100 kb/s
Скорее фильм почти мертвый...

_________________
PS3 Slim 320Gb (Rogero CFW 4.30 2.00) | Xbox360 Arcade 250 Gb LT+2.0 | Win 7 Ultimate x64 SP-1|Intel Core i5 750 (3.8GHz)|ASUS P7P55D-E PRO|4x2 Гб DDR3-1333 DDR3 SDRAM OCZ|GigaByte GeForce GTX 670 2048MB (320.49 WHQL)|5.5Tb+4.5Tb external|Thermaltake Element V|FSP Epsilon 800W Hi-Fi:Quadral Quintas 6000 5.0 Black + Yamaha RX-v571 Black + Dune HD Duo + 3D LED Samsung UE46 ES8000S
info [Профиль]  [ЛС] 

Basketballman

Пол: Пол:Муж

Стаж: 7 лет 1 месяц

Сообщений: 280

Россия
Рейтинг

post 21-Ноя-2013 16:40 (спустя 1 месяц 1 день) [-]0[+]

[Цитировать] 

Раздача обновлена, добавлен звук с Blu-ray CEE.

_________________
info [Профиль]  [ЛС] 

seregashar

Пол: Пол:Муж

Стаж: 6 лет 7 месяцев

Сообщений: 382

СССР
Рейтинг

post 22-Ноя-2013 12:31 (спустя 19 часов) [-]0[+]

[Цитировать] 

а мне фильм понравился,местами поржал anime_6

_________________
ДИНОЗАВР ASUS P5Q-e/проц q9550 2.8@3.5/видео ZOTAC GTX470amp1280mb/8gb ram/OC Win7 64bit/SSD Silicon Power V70/монитор 1680*1050/Chieftec APS-850C
info [Профиль]  [ЛС] 

ubivator

Стаж: 6 лет 7 месяцев

Сообщений: 88

Украина
Рейтинг

post 04-Дек-2013 14:15 (спустя 12 дней) [-]-1[+]

[Цитировать] 

Раздайте пож

_________________
info [Профиль]  [ЛС] 
Показать сообщения:    
Ответить на тему

Текущее время: 06-Дек 19:58

Часовой пояс: GMT + 4



Вы не можете начинать темы
Вы не можете отвечать на сообщения
Вы не можете редактировать свои сообщения
Вы не можете удалять свои сообщения
Вы не можете голосовать в опросах
Вы не можете прикреплять файлы к сообщениям
Вы не можете скачивать файлы