Ошибка

Кадры / The Internship (Шон Леви ) [2013 г., комедия, BDRemux 1080p] [UNRATED]

Ответить на тему
 
Автор Сообщение

Basketballman

Пол: Пол:Муж

Стаж: 7 лет 1 месяц

Сообщений: 280

Россия
Рейтинг

post 11-Окт-2013 02:59 0[+]

[Цитировать] 

Кадры / The Internship

Год выпуска: 2013
Страна: США
Жанр: комедия
Продолжительность: 02:05:01
Перевод: профессиональный (полное дублирование) лицензия
Режиссер:
  • Шон Леви
В ролях:
  • Роуз Бирн, Джон Гудмен, Винс Вон, Оуэн Уилсон, Чути Тью, Джоэнна Гарсиа, Джош Гад, Джессика Зор, Дилан О’Брайэн, Б.Дж. Новак, Макс Мингелла

Описание: Билли и Ник всю жизнь занимаются продажами. Но новый компьютерный мир рушит их карьеру. Стараясь доказать, что они не отстали от жизни, они бросают вызов судьбе, получив желанную стажировку в компании Google вместе с командой лучших студентов колледжей. Но получить доступ в этот фантастический мир — это только половина дела. Сейчас им придется выдержать конкуренцию с самыми лучшими техническими гениями, чтобы доказать, что необходимость — это мать обновления.

Качество: BD-Remux 1080p
Формат: MKV
Видео кодек: MPEG-4
Аудио кодек: DTS, DTS-HD
Видео: 1920x1080, 23.976 fps, 23.4 Mбит/с
Аудио: 1) Russian: DTS, 6 ch, 768 Kbps
2) English: DTS-HD MA, 8 ch, 3746 Kbps
3) Ukrainian: DTS, 6 ch, 768 Kbps
Субтитры: русские, английские

Sample
General
Unique ID : 213883593889825561979261904522915610525 (0xA0E87B57CE3CEA61B3262D26667FFF9D)
Complete name : C:\Кино\The.Internship.2013.UNRATED.Remux.mkv
Format : Matroska
Format version : Version 2
File size : 25.7 GiB
Duration : 2h 5mn
Overall bit rate mode : Variable
Overall bit rate : 29.4 Mbps
Encoded date : UTC 2013-10-10 16:56:21
Writing application : mkvmerge v6.3.0 ('You can't stop me!') built on Jun 28 2013 20:09:41
Writing library : libebml v1.3.0 + libmatroska v1.4.0

Video
ID : 1
Format : AVC
Format/Info : Advanced Video Codec
Format profile : High@L4.1
Format settings, CABAC : Yes
Format settings, ReFrames : 2 frames
Codec ID : V_MPEG4/ISO/AVC
Duration : 2h 5mn
Bit rate mode : Variable
Width : 1 920 pixels
Height : 1 080 pixels
Display aspect ratio : 16:9
Frame rate mode : Constant
Frame rate : 23.976 fps
Color space : YUV
Chroma subsampling : 4:2:0
Bit depth : 8 bits
Scan type : Progressive
Default : Yes
Forced : No

Audio #1
ID : 2
Format : DTS
Format/Info : Digital Theater Systems
Mode : 16
Format settings, Endianness : Big
Codec ID : A_DTS
Duration : 2h 5mn
Bit rate mode : Constant
Bit rate : 768 Kbps
Channel count : 6 channels
Channel positions : Front: L C R, Side: L R, LFE
Sampling rate : 48.0 KHz
Bit depth : 24 bits
Compression mode : Lossy
Stream size : 687 MiB (3%)
Language : Russian
Default : No
Forced : No

Audio #2
ID : 3
Format : DTS
Format/Info : Digital Theater Systems
Mode : 16
Format settings, Endianness : Big
Codec ID : A_DTS
Duration : 2h 5mn
Bit rate mode : Constant
Bit rate : 768 Kbps
Channel count : 6 channels
Channel positions : Front: L C R, Side: L R, LFE
Sampling rate : 48.0 KHz
Bit depth : 24 bits
Compression mode : Lossy
Stream size : 687 MiB (3%)
Language : Ukrainian
Default : No
Forced : No

Audio #3
ID : 4
Format : DTS
Format/Info : Digital Theater Systems
Format profile : MA / Core
Mode : 16
Format settings, Endianness : Big
Codec ID : A_DTS
Duration : 2h 5mn
Bit rate mode : Variable
Bit rate : Unknown / 1 509 Kbps
Channel count : 6 channels
Channel positions : Front: L C R, Side: L R, LFE
Sampling rate : 48.0 KHz
Bit depth : 24 bits
Compression mode : Lossless / Lossy
Language : English
Default : No
Forced : No

Audio #4
ID : 5
Format : AC-3
Format/Info : Audio Coding 3
Mode extension : CM (complete main)
Format settings, Endianness : Big
Codec ID : A_AC3
Duration : 2h 5mn
Bit rate mode : Constant
Bit rate : 448 Kbps
Channel count : 6 channels
Channel positions : Front: L C R, Side: L R, LFE
Sampling rate : 48.0 KHz
Bit depth : 16 bits
Compression mode : Lossy
Stream size : 401 MiB (2%)
Language : English
Default : No
Forced : No

Audio #5
ID : 6
Format : AC-3
Format/Info : Audio Coding 3
Mode extension : CM (complete main)
Format settings, Endianness : Big
Codec ID : A_AC3
Duration : 2h 5mn
Bit rate mode : Constant
Bit rate : 224 Kbps
Channel count : 2 channels
Channel positions : Front: L R
Sampling rate : 48.0 KHz
Bit depth : 16 bits
Compression mode : Lossy
Stream size : 200 MiB (1%)
Language : English
Default : No
Forced : No

Text #1
ID : 7
Format : UTF-8
Codec ID : S_TEXT/UTF8
Codec ID/Info : UTF-8 Plain Text
Language : Russian
Default : No
Forced : No

Text #2
ID : 8
Format : PGS
Muxing mode : zlib
Codec ID : S_HDMV/PGS
Codec ID/Info : The same subtitle format used on BDs/HD-DVDs
Language : English
Default : Yes
Forced : No

Text #3
ID : 9
Format : PGS
Muxing mode : zlib
Codec ID : S_HDMV/PGS
Codec ID/Info : The same subtitle format used on BDs/HD-DVDs
Language : English
Default : No
Forced : No

Menu
00:00:00.000 : en:00:00:00.000
00:05:28.036 : en:00:05:28.036
00:07:50.428 : en:00:07:50.428
00:14:21.569 : en:00:14:21.569
00:19:40.387 : en:00:19:40.387
00:25:58.932 : en:00:25:58.932
00:28:59.780 : en:00:28:59.780
00:32:37.372 : en:00:32:37.372
00:35:04.769 : en:00:35:04.769
00:36:19.344 : en:00:36:19.344
00:41:52.009 : en:00:41:52.009
00:44:34.922 : en:00:44:34.922
00:48:04.840 : en:00:48:04.840
00:50:37.576 : en:00:50:37.576
00:58:27.754 : en:00:58:27.754
01:02:17.776 : en:01:02:17.776
01:06:08.798 : en:01:06:08.798
01:11:12.852 : en:01:11:12.852
01:14:02.646 : en:01:14:02.646
01:15:46.917 : en:01:15:46.917
01:18:54.438 : en:01:18:54.438
01:21:27.299 : en:01:21:27.299
01:24:11.630 : en:01:24:11.630
01:26:07.078 : en:01:26:07.078
01:27:57.731 : en:01:27:57.731
01:29:37.497 : en:01:29:37.497
01:31:39.911 : en:01:31:39.911
01:37:15.788 : en:01:37:15.788
01:42:32.938 : en:01:42:32.938
01:48:12.819 : en:01:48:12.819
01:54:18.810 : en:01:54:18.810
01:57:37.634 : en:01:57:37.634
info [Профиль]  [ЛС] 

InFuz92

Пол: Пол:Муж

Стаж: 3 года 9 месяцев

Сообщений: 13

Россия
Рейтинг

post 13-Окт-2013 03:01 (спустя 2 дня) [-]0[+]

[Цитировать] 

Не подскажите, а что за лажа со звуком? В сэмле как раз это хорошо слышно, основной звук с каким то ужасным эффектом типа реверберация, единственное где нормально, это звук в местах UNRATED (в сэмпле как раз есть пример такого, нормального звука.)
info [Профиль]  [ЛС] 

Basketballman

Пол: Пол:Муж

Стаж: 7 лет 1 месяц

Сообщений: 280

Россия
Рейтинг

post 13-Окт-2013 11:12 (спустя 8 часов) [-]0[+]

[Цитировать] 

Не знаю, вчера посмотрел полностью, никаких проблем не было.

InFuz92 писал(а):

Не подскажите, а что за лажа со звуком? В сэмле как раз это хорошо слышно, основной звук с каким то ужасным эффектом типа реверберация, единственное где нормально, это звук в местах UNRATED (в сэмпле как раз есть пример такого, нормального звука.)

_________________
info [Профиль]  [ЛС] 

InFuz92

Пол: Пол:Муж

Стаж: 3 года 9 месяцев

Сообщений: 13

Россия
Рейтинг

post 14-Окт-2013 21:54 (спустя 1 день 10 часов) [-]0[+]

[Цитировать] 

Dimussi18 писал(а):

Не знаю, вчера посмотрел полностью, никаких проблем не было.

InFuz92 писал(а):

Не подскажите, а что за лажа со звуком? В сэмле как раз это хорошо слышно, основной звук с каким то ужасным эффектом типа реверберация, единственное где нормально, это звук в местах UNRATED (в сэмпле как раз есть пример такого, нормального звука.)
Вы что не слышите разницы в качестве звука там где я писал?
info [Профиль]  [ЛС] 

seregashar

Пол: Пол:Муж

Стаж: 6 лет 7 месяцев

Сообщений: 382

СССР
Рейтинг

post 16-Окт-2013 14:51 (спустя 1 день 16 часов) [-]0[+]

[Цитировать] 

клевый фильм,посмотрел с удовольствием

_________________
ДИНОЗАВР ASUS P5Q-e/проц q9550 2.8@3.5/видео ZOTAC GTX470amp1280mb/8gb ram/OC Win7 64bit/SSD Silicon Power V70/монитор 1680*1050/Chieftec APS-850C
info [Профиль]  [ЛС] 
Показать сообщения:    
Ответить на тему

Текущее время: 04-Дек 20:19

Часовой пояс: GMT + 4



Вы не можете начинать темы
Вы не можете отвечать на сообщения
Вы не можете редактировать свои сообщения
Вы не можете удалять свои сообщения
Вы не можете голосовать в опросах
Вы не можете прикреплять файлы к сообщениям
Вы не можете скачивать файлы