Ошибка

Семейка Крудс в 3Д / The Croods 3D (Кирк де Микко, Крис Сандерс) [2013, Мультфильм, Фэнтези, Комедия, Приключения, Семейный, BDRip, 1080p, 3D]

Ответить на тему
 
Автор Сообщение

Dr.Zero

Пол: Пол:Муж

Стаж: 7 лет 5 месяцев

Сообщений: 198

Украина
Рейтинг

post 21-Сен-2013 17:58 0[+]

[Цитировать] 

pic="http://s015.radikal.ru/i330/1309/cd/30c6d54be2c1.png"
Семейка Крудс в 3Д / The Croods 3D


Год выпуска: 2013
Страна: США (20th Century Fox, DreamWorks Animation)
Жанр: Мультфильм, Фэнтези, Комедия, Приключения, Семейный
Продолжительность: 01:38:37
Перевод: Профессиональный (полное дублирование)
Язык субтитров: Русский, Английский
Режиссер:
  • Кирк де Микко, Крис Сандерс

Роли озвучивали (дублировали):


Grug - Николас Кейдж (Дмитрий Назаров)
Eep - Эмма Стоун (Нюша [Анна Шурочкина])
Guy - Райан Рейнольдс (Егор Дружинин)
Ugga - Кэтрин Кинер
Gran - Клорис Личмен (Александра Назарова)
Thunk - Кларк Дьюк (Руслан Мещанов)
Belt - Крис Сандерс

Землетрясение уничтожило дом доисторической семьи, и теперь Крудсам придётся искать другое пристанище. А вокруг новый и опасный мир! Им на помощь приходит молодой кочевник Малой, передовые взгляды которого наталкиваются на консервативность главы семьи Груга. Но только вместе они смогут выжить и достичь своей цели…

Автор рипа Ash61
Премьера: 15 февраля 2013 (21 марта 2013)
Релиз на Blu-Ray (DVD): 3 октября 2013
Бюджет: $135 000 000
Кассовые сборы: $583 426 165
General
Unique ID : 248134113967822078880210515053845678098 (0xBAACE45C2C85D8FD91820E6246D80812)
Complete name : E:\Downloads\TheCroods(2013)3D-halfOU(Ash61)\TheCroods(2013)3D-halfOU(Ash61).mkv
Format : Matroska
Format version : Version 2
File size : 8.02 GiB
Duration : 1h 38mn
Overall bit rate : 11.6 Mbps
Movie name : Семейка Крудс / The Croods (2013) 3D
Encoded date : UTC 2013-09-18 13:17:54
Writing application : mkvmerge v5.8.0 ('No Sleep / Pillow') built on Sep 2 2012 15:37:04
Writing library : libebml v1.2.3 + libmatroska v1.3.0

Video
ID : 1
Format : AVC
Format/Info : Advanced Video Codec
Format profile : High@L4.1
Format settings, CABAC : Yes
Format settings, ReFrames : 4 frames
Codec ID : V_MPEG4/ISO/AVC
Bit rate : 10.1 Mbps
Width : 1 920 pixels
Height : 1 080 pixels
Display aspect ratio : 16:9
Frame rate mode : Variable
Original frame rate : 23.976 fps
Color space : YUV
Chroma subsampling : 4:2:0
Bit depth : 8 bits
Scan type : Progressive
Title : BDRip by Ash61
Writing library : x264 core 129 r2245 bc13772
Encoding settings : cabac=1 / ref=4 / deblock=1:-3:-3 / analyse=0x3:0x113 / me=umh / subme=10 / psy=1 / psy_rd=1.00:0.15 / mixed_ref=1 / me_range=32 / chroma_me=1 / trellis=2 / 8x8dct=1 / cqm=0 / deadzone=21,11 / fast_pskip=1 / chroma_qp_offset=-3 / threads=12 / lookahead_threads=2 / sliced_threads=0 / nr=0 / decimate=1 / interlaced=0 / bluray_compat=0 / constrained_intra=0 / bframes=8 / b_pyramid=2 / b_adapt=2 / b_bias=0 / direct=3 / weightb=1 / open_gop=0 / weightp=2 / keyint=250 / keyint_min=23 / scenecut=40 / intra_refresh=0 / rc_lookahead=60 / rc=crf / mbtree=1 / crf=16.0 / qcomp=0.70 / qpmin=0 / qpmax=69 / qpstep=4 / vbv_maxrate=40000 / vbv_bufsize=30000 / crf_max=0.0 / nal_hrd=none / frame-packing=4 / ip_ratio=1.40 / aq=1:0.70
Language : English
Default : Yes
Forced : No

Audio #1
ID : 2
Format : AC-3
Format/Info : Audio Coding 3
Mode extension : CM (complete main)
Format settings, Endianness : Big
Codec ID : A_AC3
Duration : 1h 38mn
Bit rate mode : Constant
Bit rate : 640 Kbps
Channel(s) : 6 channels
Channel positions : Front: L C R, Side: L R, LFE
Sampling rate : 48.0 KHz
Bit depth : 16 bits
Compression mode : Lossy
Stream size : 451 MiB (5%)
Title : Дубляж - BD 3D
Language : Russian
Default : Yes
Forced : No

Audio #2
ID : 3
Format : AC-3
Format/Info : Audio Coding 3
Mode extension : CM (complete main)
Format settings, Endianness : Big
Codec ID : A_AC3
Duration : 1h 38mn
Bit rate mode : Constant
Bit rate : 640 Kbps
Channel(s) : 6 channels
Channel positions : Front: L C R, Side: L R, LFE
Sampling rate : 48.0 KHz
Bit depth : 16 bits
Compression mode : Lossy
Stream size : 451 MiB (5%)
Title : Original
Language : English
Default : No
Forced : No

Menu
00:00:00.000 : :1
00:02:34.988 : :2
00:04:51.750 : :3
00:09:01.249 : :4
00:12:21.115 : :5
00:14:04.802 : :6
00:18:33.029 : :7
00:21:56.982 : :8
00:23:24.737 : :9
00:26:49.775 : :10
00:28:37.132 : :11
00:30:25.657 : :12
00:32:48.633 : :13
00:36:03.370 : :14
00:38:33.561 : :15
00:41:34.534 : :16
00:44:38.843 : :17
00:48:02.630 : :18
00:52:10.961 : :19
00:55:17.481 : :20
01:00:14.778 : :21
01:03:58.084 : :22
01:05:48.736 : :23
01:08:44.037 : :24
01:10:47.285 : :25
01:12:37.144 : :26
01:14:01.646 : :27
01:19:48.575 : :28
01:23:09.860 : :29
01:25:16.737 : :30
01:28:04.321 : :31
01:30:02.230 : :32

Качество: BDRip
Формат: MKV
Формат 3D: Half OverUnder / Вертикальная анаморфная стереопара
Видео кодек: H.264
Аудио кодек: AC3
Видео: AVC / 23,976 fps / 1920х1080p / 10.1 Mbps
Аудио:
#1 - Русский / AC3 / 48 KHz / 5.1 ch / 640 Kbps (Дубляж - BD 3D)
#2 - Английский / AC3 / 48 KHz / 5.1 ch / 640 Kbps (Original)
Субтитры:
Внешние (SRT UTF-8):

#1 - Русские Полные
#2 - English Full

info [Профиль]  [ЛС] 

post 07-Апр-2014 00:01 (спустя 6 месяцев 15 дней) [-]0[+]

Топик был перенесен из форума 3D Новинки в форум 3D

BZzz
 
Показать сообщения:    
Ответить на тему

Текущее время: 09-Дек 06:07

Часовой пояс: GMT + 4



Вы не можете начинать темы
Вы не можете отвечать на сообщения
Вы не можете редактировать свои сообщения
Вы не можете удалять свои сообщения
Вы не можете голосовать в опросах
Вы не можете прикреплять файлы к сообщениям
Вы не можете скачивать файлы