Ошибка

Генезис / Genesis (Клод Нуридзани, Мари Перену) [2004 г, документальный, BDRip 720p]

Ответить на тему
 
Автор Сообщение

Pahan

Пол: Пол:Муж

Стаж: 6 лет 2 месяца

Сообщений: 922

Предупреждений: 3

Россия
Рейтинг

post 01-Сен-2013 18:15 5[+]

[Цитировать] 

pic="http://i59.fastpic.ru/big/2013/0901/9c/0d71ef12dfe52b3ccbf54b28d15c2f9c.jpg"
Генезис / Genesis


Год выпуска: 2004
Страна: Франция, Италия
Жанр: документальный
Продолжительность: 01:20:53
Перевод: профессиональный (одноголосый закадровый)
Субтитры: русские, английские

Режиссер:
  • Клод Нуридзани, Мари Перену


В ролях:
  • Сотиги Куяте


Описание:
«Генезис» амбициозный проект, рассказывающий о происхождении Вселенной и жизни на нашей планете: флоры, фауны и человеческой расы.






Качество: BDRip 720p (Pahan)
Формат: MKV
Видео кодек: x264
Аудио кодек: DTS
Видео: 1280x692, 24.000 fps, 0.400 bits/pixel, 8 500 Kbps
Аудио: 48.0 KHz, DTS, 5.1 ch (L,C,R,l,r) + LFE, 1536 kbps |Одноголосый закадровый|
Аудио: 48.0 KHz, DTS, 5.1 ch (L,C,R,l,r) + LFE, 1536 kbps |Оригинал|

Код:

General
Unique ID                                : 181831343363250794360622347504047585003 (0x88CB7161F829B2078B8BA127C47B76EB)
Complete name                            : D:\Фильмы\Genesis.mkv
Format                                   : Matroska
Format version                           : Version 4 / Version 2
File size                                : 6.51 GiB
Duration                                 : 1h 20mn
Overall bit rate                         : 11.5 Mbps
Movie name                               : Pahan
Encoded date                             : UTC 2013-08-31 20:40:28
Writing application                      : mkvmerge v6.3.0 ('You can't stop me!') built on Jun 28 2013 20:09:41
Writing library                          : libebml v1.3.0 + libmatroska v1.4.0

Video
ID                                       : 1
Format                                   : AVC
Format/Info                              : Advanced Video Codec
Format profile                           : High@L4.1
Format settings, CABAC                   : Yes
Format settings, ReFrames                : 9 frames
Codec ID                                 : V_MPEG4/ISO/AVC
Duration                                 : 1h 20mn
Bit rate                                 : 8 500 Kbps
Width                                    : 1 280 pixels
Height                                   : 692 pixels
Display aspect ratio                     : 1.85:1
Frame rate mode                          : Constant
Frame rate                               : 24.000 fps
Color space                              : YUV
Chroma subsampling                       : 4:2:0
Bit depth                                : 8 bits
Scan type                                : Progressive
Bits/(Pixel*Frame)                       : 0.400
Stream size                              : 4.67 GiB (72%)
Title                                    : Генезис | Genesis
Writing library                          : x264 core 133 r2334 a3ac64b
Encoding settings                        : cabac=1 / ref=9 / deblock=1:-3:-3 / analyse=0x3:0x133 / me=umh / subme=11 / psy=1 / psy_rd=1.10:0.10 / mixed_ref=1 / me_range=24 / chroma_me=1 / trellis=2 / 8x8dct=1 / cqm=0 / deadzone=21,11 / fast_pskip=0 / chroma_qp_offset=-3 / threads=8 / lookahead_threads=1 / sliced_threads=0 / nr=0 / decimate=0 / interlaced=0 / bluray_compat=0 / constrained_intra=0 / bframes=8 / b_pyramid=2 / b_adapt=2 / b_bias=0 / direct=3 / weightb=1 / open_gop=0 / weightp=2 / keyint=240 / keyint_min=24 / scenecut=40 / intra_refresh=0 / rc=2pass / mbtree=0 / bitrate=8500 / ratetol=1.0 / qcomp=0.60 / qpmin=0 / qpmax=69 / qpstep=4 / cplxblur=20.0 / qblur=0.5 / ip_ratio=1.40 / pb_ratio=1.30 / aq=1:0.80
Language                                 : English
Default                                  : Yes
Forced                                   : No
Matrix coefficients                      : BT.709

Audio #1
ID                                       : 2
Format                                   : DTS
Format/Info                              : Digital Theater Systems
Mode                                     : 16
Format settings, Endianness              : Big
Codec ID                                 : A_DTS
Duration                                 : 1h 20mn
Bit rate mode                            : Constant
Bit rate                                 : 1 510 Kbps
Channel count                            : 6 channels
Channel positions                        : Front: L C R, Side: L R, LFE
Sampling rate                            : 48.0 KHz
Bit depth                                : 24 bits
Compression mode                         : Lossy
Stream size                              : 874 MiB (13%)
Title                                    : Одноголосый закадровый
Language                                 : Russian
Default                                  : Yes
Forced                                   : No

Audio #2
ID                                       : 3
Format                                   : DTS
Format/Info                              : Digital Theater Systems
Mode                                     : 16
Format settings, Endianness              : Big
Codec ID                                 : A_DTS
Duration                                 : 1h 20mn
Bit rate mode                            : Constant
Bit rate                                 : 1 510 Kbps
Channel count                            : 6 channels
Channel positions                        : Front: L C R, Side: L R, LFE
Sampling rate                            : 48.0 KHz
Bit depth                                : 24 bits
Compression mode                         : Lossy
Stream size                              : 874 MiB (13%)
Title                                    : Оригинал
Language                                 : French
Default                                  : No
Forced                                   : No

Text #1
ID                                       : 4
Format                                   : UTF-8
Codec ID                                 : S_TEXT/UTF8
Codec ID/Info                            : UTF-8 Plain Text
Language                                 : Russian
Default                                  : No
Forced                                   : No

Text #2
ID                                       : 5
Format                                   : UTF-8
Codec ID                                 : S_TEXT/UTF8
Codec ID/Info                            : UTF-8 Plain Text
Language                                 : English
Default                                  : No
Forced                                   : No

Menu
00:00:00.000                             : :Chapter 01
00:07:54.416                             : :Chapter 02
00:10:35.083                             : :Chapter 03
00:14:41.958                             : :Chapter 04
00:16:54.416                             : :Chapter 05
00:18:23.250                             : :Chapter 06
00:23:49.291                             : :Chapter 07
00:32:05.416                             : :Chapter 08
00:34:39.166                             : :Chapter 09
00:39:23.375                             : :Chapter 10
00:44:36.958                             : :Chapter 11
00:47:46.166                             : :Chapter 12
00:49:11.833                             : :Chapter 13
00:54:30.125                             : :Chapter 14
00:59:26.166                             : :Chapter 15
01:05:22.416                             : :Chapter 16
01:10:24.625                             : :Chapter 17
01:14:04.875                             : :Chapter 18

Код:

x264 [info]: frame I:666   Avg QP:17.66  size:154809
x264 [info]: frame P:23572 Avg QP:19.71  size: 75809
x264 [info]: frame B:92250 Avg QP:22.00  size: 35381

info [Профиль]  [ЛС] 

Pahan

Пол: Пол:Муж

Стаж: 6 лет 2 месяца

Сообщений: 922

Предупреждений: 3

Россия
Рейтинг

post 02-Сен-2013 20:26 (спустя 1 день 2 часа) [-]2[+]

[Цитировать] 

Интересно, чем мог так не понравился релиз, что ему нужно ставить единицу?! kolob_145
info [Профиль]  [ЛС] 

Dimonandroid

Пол: Пол:Муж

Стаж: 4 года 8 месяцев

Сообщений: 90

Кокосовые острова
Рейтинг

post 02-Сен-2013 20:27 (спустя 1 минута) [-]0[+]

[Цитировать] 

ИМХО) описание не впечатляет/не цепляет..
info [Профиль]  [ЛС] 

Pahan

Пол: Пол:Муж

Стаж: 6 лет 2 месяца

Сообщений: 922

Предупреждений: 3

Россия
Рейтинг

post 02-Сен-2013 20:31 (спустя 4 минуты) [-]2[+]

[Цитировать] 

Dimonandroid
Думаю как минимум бред судить о материале по описанию...
info [Профиль]  [ЛС] 
Показать сообщения:    
Ответить на тему

Текущее время: 08-Дек 15:55

Часовой пояс: GMT + 4



Вы не можете начинать темы
Вы не можете отвечать на сообщения
Вы не можете редактировать свои сообщения
Вы не можете удалять свои сообщения
Вы не можете голосовать в опросах
Вы не можете прикреплять файлы к сообщениям
Вы не можете скачивать файлы