Ошибка

(Melodic death metal) Avatar - Discography (4 CDs) - 2006-2012, FLAC (tracks, images+.cue)+covers, lossless

Ответить на тему
 
Автор Сообщение

remmar

Стаж: 4 года

Сообщений: 1

Албания
Рейтинг

post 07-Авг-2013 14:06 0[+]

[Цитировать] 

Avatar - 4 альбома (2006-2012)

"Год: 2006-2012
Жанр: Melodic death metal
Происхождение исполнителя: Швеция
Кодек: FLAC
Битрейт: Lossless
Продолжительность: 02:47:36
Полиграфия: Имеется для альбомов "Thoughts Of No Tomorrow" и "Black Waltz".
Кодек: FLAC(image+.cue+.log+spectr)
Битрейт: Lossless
Тип битрейта: VBR
Наличие сканов: Да
Издатель (лейбл): GAIN
Номер по каталогу: GPCD28
Источник (релизер): MeTaLMaDNeSS.TeaM

Продолжительность: 00:40:24
Треклист:
01. Bound To The Wall
02. And I Bid You Farewell
03. Last One Standing
04. War Song
05. The Willy
06. My Shining Star
07. My Lie
08. Stranger
09. The Skinner
10. Sane?
11. Slave Hive Meltdown

Код:

REM GENRE "Death Metal"
REM DATE 2006
REM DISCID 8A09780B
REM COMMENT "ExactAudioCopy v0.95b4"
PERFORMER "Avatar"
TITLE "Thoughts of No Tomorrow
"FILE "Avatar-Thoughts_Of_No_Tomorrow-2006-FLAC-dyrka.flac" WAVE
  TRACK 01 AUDIO
    TITLE "Bound To The Wall"
    PERFORMER "Avatar"
    INDEX 01 00:00:00
  TRACK 02 AUDIO
    TITLE "And I Bid You Farewell"
    PERFORMER "Avatar"
    INDEX 00 03:27:01
    INDEX 01 03:27:61
  TRACK 03 AUDIO
    TITLE "Last One Standing"
    PERFORMER "Avatar"
    INDEX 00 06:51:39
    INDEX 01 06:52:34
  TRACK 04 AUDIO
    TITLE "War Song"
    PERFORMER "Avatar"
    INDEX 00 10:17:28
    INDEX 01 10:30:49
  TRACK 05 AUDIO
    TITLE "The Willy"
    PERFORMER "Avatar"
    INDEX 00 12:45:37
    INDEX 01 12:45:43
  TRACK 06 AUDIO
    TITLE "My Shining Star"
    PERFORMER "Avatar"
    INDEX 01 17:06:67
  TRACK 07 AUDIO
    TITLE "My Lie"
    PERFORMER "Avatar"
    INDEX 01 20:50:06
  TRACK 08 AUDIO
    TITLE "Stranger"
    PERFORMER "Avatar"
    INDEX 00 24:38:36
    INDEX 01 24:40:22
  TRACK 09 AUDIO
    TITLE "The Skinner"
    PERFORMER "Avatar"
    INDEX 00 30:29:32
    INDEX 01 30:30:25
  TRACK 10 AUDIO
    TITLE "Sane?"
    PERFORMER "Avatar"
    INDEX 00 32:24:52
    INDEX 01 32:26:28
  TRACK 11 AUDIO
    TITLE "Slave Hive Meltdown"
    PERFORMER "Avatar"
    INDEX 01 34:41:48

Код:

EAC extraction logfile from 13. April 2006, 23:32 for CD
Avatar / Thoughts of No Tomorrow

Used drive  : IDE-DVD DROM6216   Adapter: 2  ID: 1
Read mode   : Secure with NO C2, accurate stream, disable cache
Combined read/write offset correction : 738
Overread into Lead-In and Lead-Out : No

Used output format : C:\Program\Exact Audio Copy\flac.exe   (User Defined Encoder)
                     320 kBit/s
                     Additional command line options : -6 -V -T "artist=%a" -T "title=%t" -T "album=%g" -T "date=%y" -T "tracknumber=%n" -T "genre=%m" -T "comment=EAC 0.95b4 / FLAC 1.1.2 q6" %s

Other options      :
    Fill up missing offset samples with silence : Yes
    Delete leading and trailing silent blocks : No
    Native Win32 interface for Win NT & 2000

Range status and errors
Selected range
     Filename D:\Temp\Avatar-Thoughts_Of_No_Tomorrow-2006-FLAC-dyrka\Avatar-Thoughts_Of_No_Tomorrow-2006-FLAC-dyrka.wav.wav

     Peak level 99.9 %
     Range quality 100.0 %
     CRC DEF11BD3
     Copy OK

No errors occured

End of status report

Код:

-----------------------

DON'T MODIFY THIS FILE

-----------------------

PERFORMER: auCDtect Task Manager, ver. 1.6.0 RC1 build 1.6.0.1
Copyright (c) 2008-2010 y-soft. All rights reserved
http://y-soft.org

ANALYZER: auCDtect: CD records authenticity detector, version 0.8.2
Copyright (c) 2004 Oleg Berngardt. All rights reserved.
Copyright (c) 2004 Alexander Djourik. All rights reserved.

FILE: Avatar-Thoughts_Of_No_Tomorrow-2006-FLAC-dyrka.flac
  Size: 309586315 Hash: 0C871821188B4B9F4FBB35A6821E61B8 Accuracy: -m0
  Conclusion: CDDA 100%
  Signature: A71C04288C502D9E8F63EE627415FE54932DE832
Кодек: FLAC(image+.cue+.log+spectr)
Битрейт: Lossless
Тип битрейта: VBR
Наличие сканов: Нет

Продолжительность:00:38:16
Треклист:
01. Schlacht - 2:37
02. Wildflower - 2:41
03. All Which Is Black - 2:53
04. 4 AM Breakdown - 2:28
05. As It Is - 3:53
06. All Hail The Queen - 2:26
07.When Your Darkest Hour Comes - 2:03
08. I Still Hate You - 3:18
09. One/One/One/Three - 2:50
10. Die With Me - 6:02
11. The End Of Our Ride - 3:10
12. Letters From Neverend - 3:49

Код:

REM ACCURATERIPID 0011dbcc-00b0f580-ae10310d
REM GENRE Metal
REM DATE 2007
REM DISCID AE10310D
REM COMMENT "ExactAudioCopy v0.99pb4"
PERFORMER "Avatar"
TITLE "Schlacht"
FILE "Avatar - Schlacht.flac" WAVE
  TRACK 01 AUDIO
    TITLE "Schlacht"
    PERFORMER "Avatar"
    ISRC 0@4005600000
    FLAGS DCP
    INDEX 01 00:00:00
  TRACK 02 AUDIO
    TITLE "Wildflower"
    PERFORMER "Avatar"
    ISRC 0P4000600024
    FLAGS DCP
    INDEX 01 02:37:69
  TRACK 03 AUDIO
    TITLE "All Which is Black"
    PERFORMER "Avatar"
    ISRC 0`4000600052
    FLAGS DCP
    INDEX 01 05:19:38
  TRACK 04 AUDIO
    TITLE "4 AM Breakdown"
    PERFORMER "Avatar"
    ISRC 0`42D3100081
    FLAGS DCP
    INDEX 01 08:12:72
  TRACK 05 AUDIO
    TITLE "As it is"
    PERFORMER "Avatar"
    ISRC 1@4000600104
    FLAGS DCP
    INDEX 01 10:41:67
  TRACK 06 AUDIO
    TITLE "All Hail the Queen"
    PERFORMER "Avatar"
    ISRC 1P4000600143
    FLAGS DCP
    INDEX 01 14:35:22
  TRACK 07 AUDIO
    TITLE "When Your Darkest Hour Comes"
    PERFORMER "Avatar"
    ISRC 1`4000600170
    FLAGS DCP
    INDEX 01 17:01:67
  TRACK 08 AUDIO
    TITLE "I Still Hate You"
    PERFORMER "Avatar"
    ISRC 204000600190
    FLAGS DCP
    INDEX 01 19:05:55
  TRACK 09 AUDIO
    TITLE "One/one/one/three"
    PERFORMER "Avatar"
    ISRC 2@4000600222
    FLAGS DCP
    INDEX 01 22:24:42
  TRACK 10 AUDIO
    TITLE "Die With Me"
    PERFORMER "Avatar"
    ISRC 404000600251
    FLAGS DCP
    INDEX 01 25:14:71
  TRACK 11 AUDIO
    TITLE "The End of Our Ride"
    PERFORMER "Avatar"
    ISRC 4@4000600311
    FLAGS DCP
    INDEX 01 31:17:35
  TRACK 12 AUDIO
    TITLE "Letters From Neverend"
    PERFORMER "Avatar"
    ISRC 4P4000600342
    FLAGS DCP
    INDEX 01 34:27:52

Код:

Exact Audio Copy V0.99 prebeta 4 from 23. January 2008

EAC extraction logfile from 11. January 2009, 16:09

Avatar / Schlacht

Used drive  : HL-DT-STRW/DVD GCC-4521B   Adapter: 1  ID: 0

Read mode               : Secure
Utilize accurate stream : Yes
Defeat audio cache      : Yes
Make use of C2 pointers : No

Read offset correction                      : 6
Overread into Lead-In and Lead-Out          : No
Fill up missing offset samples with silence : Yes
Delete leading and trailing silent blocks   : No
Null samples used in CRC calculations       : Yes
Used interface                              : Installed external ASPI interface
Gap handling                                : Appended to previous track

Used output format              : User Defined Encoder
Selected bitrate                : 768 kBit/s
Quality                         : High
Add ID3 tag                     : No
Command line compressor         : C:\Program Files\Exact Audio Copy\FLAC\FLAC.EXE
Additional command line options : -8 -V -T "ARTIST=%a" -T "TITLE=%t" -T "ALBUM=%g" -T "DATE=%y" -T "TRACKNUMBER=%n" -T "GENRE=%m"  %s -o %d

TOC of the extracted CD

     Track |   Start  |  Length  | Start sector | End sector
    ---------------------------------------------------------
        1  |  0:00.00 |  2:37.69 |         0    |    11843
        2  |  2:37.69 |  2:41.44 |     11844    |    23962
        3  |  5:19.38 |  2:53.34 |     23963    |    36971
        4  |  8:12.72 |  2:28.70 |     36972    |    48141
        5  | 10:41.67 |  3:53.30 |     48142    |    65646
        6  | 14:35.22 |  2:26.45 |     65647    |    76641
        7  | 17:01.67 |  2:03.63 |     76642    |    85929
        8  | 19:05.55 |  3:18.62 |     85930    |   100841
        9  | 22:24.42 |  2:50.29 |    100842    |   113620
       10  | 25:14.71 |  6:02.39 |    113621    |   140809
       11  | 31:17.35 |  3:10.17 |    140810    |   155076
       12  | 34:27.52 |  3:48.72 |    155077    |   172248
       13  | 40:48.49 | 28:16.41 |    183649    |   310889

Track  1

     Filename C:\FLAC\01. Schlacht.wav

     Pre-gap length  0:00:02.00

     Peak level 98.9 %
     Track quality 100.0 %
     Test CRC 44DF08D7
     Copy CRC 44DF08D7
     Track not present in AccurateRip database
     Copy OK

Track  2

     Filename C:\FLAC\02. Wildflower.wav

     Peak level 98.9 %
     Track quality 100.0 %
     Test CRC 9FE8057F
     Copy CRC 9FE8057F
     Track not present in AccurateRip database
     Copy OK

Track  3

     Filename C:\FLAC\03. All Which is Black.wav

     Peak level 98.9 %
     Track quality 100.0 %
     Test CRC 140E493B
     Copy CRC 140E493B
     Track not present in AccurateRip database
     Copy OK

Track  4

     Filename C:\FLAC\04. 4 AM Breakdown.wav

     Peak level 98.9 %
     Track quality 100.0 %
     Test CRC ADDCF2D0
     Copy CRC ADDCF2D0
     Track not present in AccurateRip database
     Copy OK

Track  5

     Filename C:\FLAC\05. As it is.wav

     Peak level 98.9 %
     Track quality 100.0 %
     Test CRC 96FE46C6
     Copy CRC 96FE46C6
     Track not present in AccurateRip database
     Copy OK

Track  6

     Filename C:\FLAC\06. All Hail the Queen.wav

     Peak level 98.9 %
     Track quality 100.0 %
     Test CRC 67033B26
     Copy CRC 67033B26
     Track not present in AccurateRip database
     Copy OK

Track  7

     Filename C:\FLAC\07. When Your Darkest Hour Comes.wav

     Peak level 98.9 %
     Track quality 99.9 %
     Test CRC 86DD8493
     Copy CRC 86DD8493
     Track not present in AccurateRip database
     Copy OK

Track  8

     Filename C:\FLAC\08. I Still Hate You.wav

     Peak level 98.9 %
     Track quality 100.0 %
     Test CRC 280E6035
     Copy CRC 280E6035
     Track not present in AccurateRip database
     Copy OK

Track  9

     Filename C:\FLAC\09. One,one,one,three.wav

     Peak level 98.9 %
     Track quality 100.0 %
     Test CRC 04FEFFA7
     Copy CRC 04FEFFA7
     Track not present in AccurateRip database
     Copy OK

Track 10

     Filename C:\FLAC\10. Die With Me.wav

     Peak level 98.9 %
     Track quality 100.0 %
     Test CRC D7E114D0
     Copy CRC D7E114D0
     Track not present in AccurateRip database
     Copy OK

Track 11

     Filename C:\FLAC\11. The End of Our Ride.wav

     Peak level 98.9 %
     Track quality 100.0 %
     Test CRC DB10884A
     Copy CRC DB10884A
     Track not present in AccurateRip database
     Copy OK

Track 12

     Filename C:\FLAC\12. Letters From Neverend.wav

     Peak level 98.9 %
     Track quality 100.0 %
     Test CRC A4929D45
     Copy CRC A4929D45
     Track not present in AccurateRip database
     Copy OK

None of the tracks are present in the AccurateRip database

No errors occurred

End of status report

Код:

-----------------------

DON'T MODIFY THIS FILE

-----------------------

PERFORMER: auCDtect Task Manager, ver. 1.6.0 RC1 build 1.6.0.1
Copyright (c) 2008-2010 y-soft. All rights reserved
http://y-soft.org

ANALYZER: auCDtect: CD records authenticity detector, version 0.8.2
Copyright (c) 2004 Oleg Berngardt. All rights reserved.
Copyright (c) 2004 Alexander Djourik. All rights reserved.

FILE: Avatar - Schlacht.flac
  Size: 301812287 Hash: 14FFED73FEBC16A19FAB0000E09B91DD Accuracy: -m0
  Conclusion: CDDA 100%
  Signature: 907B38CE00306240D48C8F22950B184B9B5003CC
Кодек: FLAC(tracks+.cue+.log+spectr)
Битрейт: Lossless
Тип битрейта: VBR
Наличие сканов: Нет

Продолжительность:00:42:53
Треклист:
01. Queen of Blades
02. The Great Pretender
03. Shattered Wings
04. Reload
05. Out of our Minds
06. Deeper Down
07. Revolution of Two
08. Roadkill
09. Pigfucker
10. Lullaby (Death all over)

Код:

REM GENRE Metal
REM DATE 2009
REM DISCID 890A180A
REM COMMENT "ExactAudioCopy v0.99pb5"
PERFORMER "Avatar"
TITLE "Avatar"
FILE "01 - Queen Of Blades.wav" WAVE
  TRACK 01 AUDIO
    TITLE "Queen Of Blades"
    PERFORMER "Avatar"
    INDEX 01 00:00:00
FILE "02 - The Great Pretender.wav" WAVE
  TRACK 02 AUDIO
    TITLE "The Great Pretender"
    PERFORMER "Avatar"
    INDEX 01 00:00:00
  TRACK 03 AUDIO
    TITLE "Shattered Wings"
    PERFORMER "Avatar"
    INDEX 00 04:01:62
FILE "03 - Shattered Wings.wav" WAVE
    INDEX 01 00:00:00
  TRACK 04 AUDIO
    TITLE "Reload"
    PERFORMER "Avatar"
    INDEX 00 03:33:45
FILE "04 - Reload.wav" WAVE
    INDEX 01 00:00:00
  TRACK 05 AUDIO
    TITLE "Out Of Our Minds"
    PERFORMER "Avatar"
    INDEX 00 04:12:20
FILE "05 - Out Of Our Minds.wav" WAVE
    INDEX 01 00:00:00
FILE "06 - Deeper Down.wav" WAVE
  TRACK 06 AUDIO
    TITLE "Deeper Down"
    PERFORMER "Avatar"
    INDEX 01 00:00:00
  TRACK 07 AUDIO
    TITLE "Revolution Of Two"
    PERFORMER "Avatar"
    INDEX 00 03:44:45
FILE "07 - Revolution Of Two.wav" WAVE
    INDEX 01 00:00:00
  TRACK 08 AUDIO
    TITLE "Roadkill"
    PERFORMER "Avatar"
    INDEX 00 05:06:40
FILE "08 - Roadkill.wav" WAVE
    INDEX 01 00:00:00
  TRACK 09 AUDIO
    TITLE "Pigfucker"
    PERFORMER "Avatar"
    INDEX 00 03:28:26
FILE "09 - Pigfucker.wav" WAVE
    INDEX 01 00:00:00
  TRACK 10 AUDIO
    TITLE "Lullaby (Death All Over)"
    PERFORMER "Avatar"
    INDEX 00 02:02:59
FILE "10 - Lullaby (Death All Over).wav" WAVE
    INDEX 01 00:00:00

Код:

Exact Audio Copy V0.99 prebeta 5 from 4. May 2009

EAC extraction logfile from 11. November 2009, 20:25

Avatar / Avatar

Used drive  : SlimtypeDVD A  DS8AZH   Adapter: 0  ID: 0

Read mode               : Secure
Utilize accurate stream : Yes
Defeat audio cache      : Yes
Make use of C2 pointers : No

Read offset correction                      : 594
Overread into Lead-In and Lead-Out          : No
Fill up missing offset samples with silence : Yes
Delete leading and trailing silent blocks   : No
Null samples used in CRC calculations       : Yes
Used interface                              : Native Win32 interface for Win NT & 2000
Gap handling                                : Appended to previous track

Used output format              : User Defined Encoder
Selected bitrate                : 320 kBit/s
Quality                         : High
Add ID3 tag                     : No
Command line compressor         : C:\Program Files\Exact Audio Copy\Flac\flac.exe
Additional command line options : -V -8 -T "artist=%a" -T "title=%t" -T "album=%g" -T "date=%y" -T "tracknumber=%n" -T "genre=%m" %s

TOC of the extracted CD

     Track |   Start  |  Length  | Start sector | End sector
    ---------------------------------------------------------
        1  |  0:00.00 |  4:28.43 |         0    |    20142
        2  |  4:28.43 |  4:03.28 |     20143    |    38395
        3  |  8:31.71 |  3:35.11 |     38396    |    54531
        4  | 12:07.07 |  4:13.61 |     54532    |    73567
        5  | 16:20.68 |  4:29.00 |     73568    |    93742
        6  | 20:49.68 |  3:46.42 |     93743    |   110734
        7  | 24:36.35 |  5:08.06 |    110735    |   133840
        8  | 29:44.41 |  3:29.23 |    133841    |   149538
        9  | 33:13.64 |  2:04.25 |    149539    |   158863
       10  | 35:18.14 |  7:46.30 |    158864    |   193843

Track  1

     Filename C:\EACRIPS\Avatar - 2009 - Avatar\01 - Queen Of Blades.wav

     Pre-gap length  0:00:02.00

     Peak level 98.9 %
     Track quality 100.0 %
     Test CRC 22C6155D
     Copy CRC 22C6155D
     Track not present in AccurateRip database
     Copy OK

Track  2

     Filename C:\EACRIPS\Avatar - 2009 - Avatar\02 - The Great Pretender.wav

     Peak level 98.9 %
     Track quality 100.0 %
     Test CRC A11C2826
     Copy CRC A11C2826
     Track not present in AccurateRip database
     Copy OK

Track  3

     Filename C:\EACRIPS\Avatar - 2009 - Avatar\03 - Shattered Wings.wav

     Pre-gap length  0:00:01.54

     Peak level 98.9 %
     Track quality 100.0 %
     Test CRC 6BB9AD4A
     Copy CRC 6BB9AD4A
     Track not present in AccurateRip database
     Copy OK

Track  4

     Filename C:\EACRIPS\Avatar - 2009 - Avatar\04 - Reload.wav

     Pre-gap length  0:00:01.54

     Peak level 98.9 %
     Track quality 100.0 %
     Test CRC EDB776A2
     Copy CRC EDB776A2
     Track not present in AccurateRip database
     Copy OK

Track  5

     Filename C:\EACRIPS\Avatar - 2009 - Avatar\05 - Out Of Our Minds.wav

     Pre-gap length  0:00:01.54

     Peak level 98.9 %
     Track quality 100.0 %
     Test CRC 49C59DE7
     Copy CRC 49C59DE7
     Track not present in AccurateRip database
     Copy OK

Track  6

     Filename C:\EACRIPS\Avatar - 2009 - Avatar\06 - Deeper Down.wav

     Peak level 98.9 %
     Track quality 100.0 %
     Test CRC BAE80900
     Copy CRC BAE80900
     Track not present in AccurateRip database
     Copy OK

Track  7

     Filename C:\EACRIPS\Avatar - 2009 - Avatar\07 - Revolution Of Two.wav

     Pre-gap length  0:00:01.96

     Peak level 98.9 %
     Track quality 100.0 %
     Test CRC 7BFD9EDD
     Copy CRC 7BFD9EDD
     Track not present in AccurateRip database
     Copy OK

Track  8

     Filename C:\EACRIPS\Avatar - 2009 - Avatar\08 - Roadkill.wav

     Pre-gap length  0:00:01.54

     Peak level 98.9 %
     Track quality 100.0 %
     Test CRC 32F4C4A1
     Copy CRC 32F4C4A1
     Track not present in AccurateRip database
     Copy OK

Track  9

     Filename C:\EACRIPS\Avatar - 2009 - Avatar\09 - Pigfucker.wav

     Pre-gap length  0:00:00.96

     Peak level 98.9 %
     Track quality 100.0 %
     Test CRC 234C5576
     Copy CRC 234C5576
     Track not present in AccurateRip database
     Copy OK

Track 10

     Filename C:\EACRIPS\Avatar - 2009 - Avatar\10 - Lullaby (Death All Over).wav

     Pre-gap length  0:00:01.54

     Peak level 98.9 %
     Track quality 100.0 %
     Test CRC F773C934
     Copy CRC F773C934
     Track not present in AccurateRip database
     Copy OK

None of the tracks are present in the AccurateRip database

No errors occurred

End of status report

Код:

-----------------------

DON'T MODIFY THIS FILE

-----------------------

PERFORMER: auCDtect Task Manager, ver. 1.6.0 RC1 build 1.6.0.1
Copyright (c) 2008-2010 y-soft. All rights reserved
http://y-soft.org

ANALYZER: auCDtect: CD records authenticity detector, version 0.8.2
Copyright (c) 2004 Oleg Berngardt. All rights reserved.
Copyright (c) 2004 Alexander Djourik. All rights reserved.

FILE: 10 - Lullaby (Death All Over).flac
  Size: 57803316 Hash: 01A6165D56DEA760B7BB2F8269FF4F9F Accuracy: -m0
  Conclusion: CDDA 100%
  Signature: F139A1648A70A7E7A402EF481A707B63EB55767C
FILE: 09 - Pigfucker.flac
  Size: 15475917 Hash: C288B7D49972F0E1C58E26556F3CF658 Accuracy: -m0
  Conclusion: CDDA 100%
  Signature: FB8654ED1763C4E959991D130DB5795A3D696B12
FILE: 08 - Roadkill.flac
  Size: 27419007 Hash: D9F9DBA3A398CCEC0DC267747D40DE2E Accuracy: -m0
  Conclusion: CDDA 100%
  Signature: 0D48A546D3C2886452FF42AC07CE540C1AD6E61A
FILE: 07 - Revolution Of Two.flac
  Size: 39231038 Hash: 8E309BDC92C7891593B56C475FB0CFE5 Accuracy: -m0
  Conclusion: CDDA 100%
  Signature: 3736E8E3703243F4DDF91F0BD652E08DB940B05F
FILE: 06 - Deeper Down.flac
  Size: 30223417 Hash: 1DD65EBBF5BA187D338B945D270E4F98 Accuracy: -m0
  Conclusion: CDDA 100%
  Signature: BD3070DDD0C973BA32AC442C1234C93F34C11C5E
FILE: 05 - Out Of Our Minds.flac
  Size: 33704952 Hash: 8831616AC623C6C14499A1E8333FD7D4 Accuracy: -m0
  Conclusion: CDDA 99%
  Signature: 9C2F9A1DCC5E3B113545A695230502412E789914
FILE: 04 - Reload.flac
  Size: 31975580 Hash: 18D9084873B5553635B90B5CADB4A8E3 Accuracy: -m0
  Conclusion: CDDA 100%
  Signature: 8D30F5C458BD7895F91BF90260B40E026A1DE99F
FILE: 03 - Shattered Wings.flac
  Size: 28779388 Hash: 62863D7B8D391881D02E392AE093D9B7 Accuracy: -m0
  Conclusion: CDDA 100%
  Signature: C0C422980D8B3BEDA7D2C33A8F2F60BEEF040990
FILE: 02 - The Great Pretender.flac
  Size: 31787063 Hash: A6610F7B9BDD53520984AF6E39617F3D Accuracy: -m0
  Conclusion: CDDA 100%
  Signature: 28D090AF3A7B48DD8C46F2A47F5280415DCBF971
FILE: 01 - Queen Of Blades.flac
  Size: 34312026 Hash: 31641616245D1370654D7C903E15867B Accuracy: -m0
  Conclusion: CDDA 100%
  Signature: 186FF0682AB11B8F3524F64A61AFFDE06E0F0805
Кодек: FLAC(image+.cue+.log+spectr)
Битрейт: Lossless
Тип битрейта: VBR
Наличие сканов: Да

Продолжительность:00:56:03
Треклист:
01. "Let Us Die" 4:12
02. "Torn Apart" 6:29
03. "Ready for the Ride" 3:14
04. "In Napalm" 5:32
05. "Black Waltz" 5:58
06. "Blod" 3:34
07. "Let it Burn" 3:32
08. "One Touch" 4:17
09. "Paint Me Red" 4:27
10. "Smells Like a Freakshow" 4:53
11. "Use Your Tongue" 9:33

Код:

REM GENRE Metal
REM DATE 2012
REM DISCID 970D230B
REM COMMENT "ExactAudioCopy v0.99pb5"
PERFORMER "AVATAR"
TITLE "Black Waltz"
FILE "AVATAR - Black Waltz.wav" WAVE
  TRACK 01 AUDIO
    TITLE "Let Us Die"
    PERFORMER "AVATAR"
    INDEX 01 00:00:00
  TRACK 02 AUDIO
    TITLE "Torn Apart"
    PERFORMER "AVATAR"
    INDEX 00 04:13:36
    INDEX 01 04:15:18
  TRACK 03 AUDIO
    TITLE "Ready For The Ride"
    PERFORMER "AVATAR"
    INDEX 01 10:44:15
  TRACK 04 AUDIO
    TITLE "Napalm"
    PERFORMER "AVATAR"
    INDEX 01 13:58:56
  TRACK 05 AUDIO
    TITLE "Black Waltz"
    PERFORMER "AVATAR"
    INDEX 01 19:31:06
  TRACK 06 AUDIO
    TITLE "Blod"
    PERFORMER "AVATAR"
    INDEX 00 25:29:60
    INDEX 01 25:31:09
  TRACK 07 AUDIO
    TITLE "Let It Burn"
    PERFORMER "AVATAR"
    INDEX 00 29:05:35
    INDEX 01 29:06:59
  TRACK 08 AUDIO
    TITLE "One Touch"
    PERFORMER "AVATAR"
    INDEX 00 32:39:19
    INDEX 01 32:41:00
  TRACK 09 AUDIO
    TITLE "Paint Me Red"
    PERFORMER "AVATAR"
    INDEX 00 36:58:45
    INDEX 01 36:59:34
  TRACK 10 AUDIO
    TITLE "Smells Like A Freak Show"
    PERFORMER "AVATAR"
    INDEX 00 41:26:37
    INDEX 01 41:32:34
  TRACK 11 AUDIO
    TITLE "Use Your Tongue"
    PERFORMER "AVATAR"
    INDEX 00 46:25:56
    INDEX 01 46:28:24

Код:

Exact Audio Copy V0.99 prebeta 5 from 4. May 2009

Отчёт EAC об извлечении, выполненном 19. февраля 2012, 0:28

AVATAR / Black Waltz

Дисковод: TSSTcorpCDDVDW SH-S223C   Adapter: 3  ID: 0

Режим чтения                 : Достоверность
Использование точного потока : Да
Отключение кэша аудио        : Да
Использование указателей C2  : Нет

Коррекция смещения при чтении                     : 697
Способность читать области Lead-in и Lead-out     : Нет
Заполнение пропущенных сэмплов тишиной            : Да
Удаление блоков с тишиной в начале и конце        : Нет
При вычислениях CRC использовались нулевые сэмплы : Да
Интерфейс                                         : Встроенный Win32-интерфейс для Win NT/2000

Выходной формат : Внутренние WAV-операции
Формат сэмплов  : 44.100 Гц; 16 бит; стерео

TOC извлечённого CD

     Трек |   Старт  | Длительность | Начальный сектор | Конечный сектор
    ---------------------------------------------------------------------
       1  |  0:00.00 |    4:15.18   |           0      |      19142
       2  |  4:15.18 |    6:28.72   |       19143      |      48314
       3  | 10:44.15 |    3:14.41   |       48315      |      62905
       4  | 13:58.56 |    5:32.25   |       62906      |      87830
       5  | 19:31.06 |    6:00.03   |       87831      |     114833
       6  | 25:31.09 |    3:35.50   |      114834      |     131008
       7  | 29:06.59 |    3:34.16   |      131009      |     147074
       8  | 32:41.00 |    4:18.34   |      147075      |     166458
       9  | 36:59.34 |    4:33.00   |      166459      |     186933
      10  | 41:32.34 |    4:55.65   |      186934      |     209123
      11  | 46:28.24 |    9:35.17   |      209124      |     252265

Характеристики диапазона извлечения и сообщения об ошибках

Выбранный диапазон

     Имя файла C:\Users\pomydor\Music\Zadavaka\AVATAR - Black Waltz.wav

     Пиковый уровень 98.8 %
     Качество диапазона 100.0 %
     CRC теста 74520C59
     CRC копии 74520C59
     Копирование... OK

Ошибок не произошло

AccurateRip: сводка

Трек  1  нет в базе данных
Трек  2  нет в базе данных
Трек  3  нет в базе данных
Трек  4  нет в базе данных
Трек  5  нет в базе данных
Трек  6  нет в базе данных
Трек  7  нет в базе данных
Трек  8  нет в базе данных
Трек  9  нет в базе данных
Трек 10  нет в базе данных
Трек 11  нет в базе данных

Ни одного трека нет в базе AccurateRip

Конец отчёта

Код:

-----------------------

DON'T MODIFY THIS FILE

-----------------------

PERFORMER: auCDtect Task Manager, ver. 1.6.0 RC1 build 1.6.0.1
Copyright (c) 2008-2010 y-soft. All rights reserved
http://y-soft.org

ANALYZER: auCDtect: CD records authenticity detector, version 0.8.2
Copyright (c) 2004 Oleg Berngardt. All rights reserved.
Copyright (c) 2004 Alexander Djourik. All rights reserved.

FILE: AVATAR - Black Waltz.flac
  Size: 429221387 Hash: F15C53679D40DF344B7405DC2D7A3BED Accuracy: -m0
  Conclusion: CDDA 100%
  Signature: 44CDB69F6588FAC7D3568606C77CBCD3D6404AA0
Официальный сайт группы: http://avatar.net
Группа была образована в 2001 в городе Гётеборг барабанщиком Юном Альфредссоном и гитаристом Юнасом Ярлсбю.
Записав 2 демо и 2 сингла, в 2006 году группа наконец издаёт свой первый полноформатный альбом Thoughts of no Tomorrow. В октябре 2007 года группа выпускает второй альбом Schlacht, который достигает 27 места в национальном чарте. К созданию альбома приложил руку гитарист In Flames Бьёрн Гелотте, сыграв гитарное соло в композиции Letters from Neverend. В ноябре 2009 года выходит третий одноимённый альбом — Avatar. На этот раз группе удалось достичь 36-го места в национальном чарте. В январе 2010 команда подписывает контракт с лейблом Sony Music.
Avatar дали несколько европейских туров вместе с такими группами, как Impaled Nazarene (май 2006), Evergrey (октябрь — ноябрь 2006), Obituary (январь — февраль 2008), Hardcore Superstar (октябрь — ноябрь 2009), Warrior Soul (март — апрель 2010), Dark Tranquillity (октябрь — ноябрь 2010). С декабря 2010-го по январь 2011-го группа поддерживала европейский этап мирового тура Helloween + Stratovarius. Avatar выступили на нескольких больших фестивалях музыки в Швеции — Sweden Rock Festival, Arvikafestivalen и Storsjöyran.
Юханнес Эккерстрём (Johannes Eckerström) — вокал
Юнас Ярлсбю (Jonas Jarlsby) — гитара
Тим Оштрём (Tim Öhrström) — гитара
Хенрик Сандели́н (Henrik Sandelin) — бас
Юн Альфредссон (John Alfredsson) — ударные

Бывшие участники:
Симон Андерсон (Simon Andersson) — гитара (2003-2012)
Демо
2003 — Personal Observations
Синглы
2005 — My Shining Star
2005 — And I Bid You Farewell
2009 — The Great Pretender
EP
2004 — 4 Reasons to Die
2011 — Black Waltz EP
Альбомы
2006 — Thoughts of No Tomorrow
2007 — Schlacht
2009 — Avatar
2012 — Avatar - Black Waltz
info [Профиль]  [ЛС] 
Показать сообщения:    
Ответить на тему

Текущее время: 08-Дек 04:13

Часовой пояс: GMT + 4



Вы не можете начинать темы
Вы не можете отвечать на сообщения
Вы не можете редактировать свои сообщения
Вы не можете удалять свои сообщения
Вы не можете голосовать в опросах
Вы не можете прикреплять файлы к сообщениям
Вы не можете скачивать файлы