Ошибка

Темный рыцарь: Возрождение легенды, Часть 2 / Batman: The Dark Knight Returns, Part 2 (Джей Олива / Jay Oliva) [2013 , мультфильм, боевик , BDRip 1080p]

Ответить на тему
 
Автор Сообщение

Joe Allesandro

Пол: Пол:Муж

Стаж: 3 года 10 месяцев

Сообщений: 7

США
Рейтинг

post 31-Июл-2013 20:14 0[+]

[Цитировать] 

Темный рыцарь: Возрождение легенды, Часть 2
Batman: The Dark Knight Returns, Part 2

  • Год производства: 2013
  • Страна: USA
  • Жанр: мультфильм, боевик
  • Продолжительность: 01:15:49
  • Перевод: Профессиональный (полное дублирование)
  • Субтитры: Отсутствуют
  • Режиссер: Джей Олива / Jay Oliva

  • Описание: Прошло 10 лет с тех пор как стареющий Бэтмен «ушел в отставку». Готэм в упадке и беззаконии. Теперь, когда городу так нужен его герой, Бэтмен наконец возвращается. В компании Кэрри Келли - девушки-супергероя - Бэтмен решает очистить улицы от банд мутантов, которые наводнили Готэм. После того, как Бэтмен дал отпор своим злейшим врагам Джокеру и Двуликому, он вступает в смертельный бой с бывшим союзником - Суперменом. В этой схватке победит только один.

  • Качество видео: BDRip 1080p
  • Формат видео: mkv
  • Видео кодек: H264
  • Аудио кодек: AC3
  • Видео: 1920x1080 (16:9), 23.976 fps, 7 694 Kbps, 0.155 bit/pixel
  • Аудио: 48 kHz, AC3 2 ch ~192 kbps avg
  • Автор рипа: falco

Код:

General
Unique ID                      : 179528591642704647340305421752192314535 (0x870FF2F50FA2CB8DB9984BF96D49ACA7)
Complete name                  : D:\Торенты\Batman.The.Dark.Knight.Returns.Part.2.2013.BDRip.1080p.falco.mkv
Format                         : Matroska
Format version                 : Version 4 / Version 2
File size                      : 4.17 GiB
Duration                       : 1h 15mn
Overall bit rate               : 7 883 Kbps
Encoded date                   : UTC 2013-07-31 13:37:14
Writing application            : mkvmerge v6.3.0 ('You can't stop me!') built on Jun 28 2013 20:09:41
Writing library                : libebml v1.3.0 + libmatroska v1.4.0

Video
ID                             : 1
Format                         : AVC
Format/Info                    : Advanced Video Codec
Format profile                 : High@L4.1
Format settings, CABAC         : Yes
Format settings, ReFrames      : 4 frames
Codec ID                       : V_MPEG4/ISO/AVC
Duration                       : 1h 15mn
Bit rate                       : 7 694 Kbps
Width                          : 1 920 pixels
Height                         : 1 080 pixels
Display aspect ratio           : 16:9
Frame rate                     : 23.976 fps
Color space                    : YUV
Chroma subsampling             : 4:2:0
Bit depth                      : 8 bits
Scan type                      : Progressive
Bits/(Pixel*Frame)             : 0.155
Stream size                    : 3.99 GiB (96%)
Writing library                : x264 core 130 r2273 b3065e6
Encoding settings              : cabac=1 / ref=4 / deblock=1:-1:-1 / analyse=0x3:0x113 / me=umh / subme=7 / psy=1 / psy_rd=1.00:0.20 / mixed_ref=1 / me_range=16 / chroma_me=1 / trellis=2 / 8x8dct=1 / cqm=0 / deadzone=21,11 / fast_pskip=0 / chroma_qp_offset=-3 / threads=6 / lookahead_threads=1 / sliced_threads=0 / nr=0 / decimate=0 / interlaced=0 / bluray_compat=0 / constrained_intra=0 / bframes=3 / b_pyramid=2 / b_adapt=2 / b_bias=0 / direct=3 / weightb=1 / open_gop=0 / weightp=2 / keyint=250 / keyint_min=23 / scenecut=40 / intra_refresh=0 / rc_lookahead=50 / rc=2pass / mbtree=1 / bitrate=7694 / ratetol=1.0 / qcomp=0.60 / qpmin=0 / qpmax=69 / qpstep=4 / cplxblur=20.0 / qblur=0.5 / vbv_maxrate=50000 / vbv_bufsize=50000 / nal_hrd=none / ip_ratio=1.40 / aq=1:1.00
Default                        : Yes
Forced                         : No

Audio
ID                             : 2
Format                         : AC-3
Format/Info                    : Audio Coding 3
Format profile                 : Dolby Digital
Mode extension                 : CM (complete main)
Format settings, Endianness    : Big
Codec ID                       : A_AC3
Duration                       : 1h 15mn
Bit rate mode                  : Constant
Bit rate                       : 192 Kbps
Channel(s)                     : 2 channels
Channel positions              : Front: L R
Sampling rate                  : 48.0 KHz
Bit depth                      : 16 bits
Compression mode               : Lossy
Stream size                    : 104 MiB (2%)
Title                          : Профессиональный (полное дублирование)
Language                       : Russian
Default                        : Yes
Forced                         : No           
info [Профиль]  [ЛС] 

L

Пол: Пол:Муж

Стаж: 6 лет 7 месяцев

Сообщений: 10798

Украина
Рейтинг

post 31-Июл-2013 22:17 (спустя 2 часа 3 минуты) [-]0[+]

[Цитировать] 

Отлично, только шрифт в основном оформлении уменьшите максимум до 16. На не FullHD экранах будет плохо.
Во всех раздачах измените, и отпишитесь, пож-та.

_________________
info [Профиль]  [ЛС] 

post 01-Авг-2013 08:34 (спустя 10 часов) [-]0[+]

Топик был перенесен из форума Анонсы в форум Мультфильмы (HD Video)

L
 

Big23

Стаж: 6 лет 4 месяца

Сообщений: 992

Зимбабве
Рейтинг

post 02-Авг-2013 20:03 (спустя 1 день 21 час) [-]0[+]

[Цитировать] 

Цитата:

вступает в смертельный бой с бывшим союзником - Суперменом.
С каких это он -и удруг злодей? Странная версия; в комиксах про S-мена тоже так? Надо проверить, жэж!

_________________
везде требуются космонавты
info [Профиль]  [ЛС] 

Black Smoke

Пол: Пол:Муж

Стаж: 7 лет 8 месяцев

Сообщений: 5972

Россия
Рейтинг

post 03-Авг-2013 03:03 (спустя 7 часов) [-]0[+]

[Цитировать] 

Big23 писал(а):

Цитата:

вступает в смертельный бой с бывшим союзником - Суперменом.
С каких это он -и удруг злодей?
Он не злодей, но это не мешает им помахаться) В мультфильме все отлично объяснено.

_________________
info [Профиль]  [ЛС] 
Показать сообщения:    
Ответить на тему

Текущее время: 06-Дек 12:16

Часовой пояс: GMT + 4



Вы не можете начинать темы
Вы не можете отвечать на сообщения
Вы не можете редактировать свои сообщения
Вы не можете удалять свои сообщения
Вы не можете голосовать в опросах
Вы не можете прикреплять файлы к сообщениям
Вы не можете скачивать файлы