Ошибка

G.I. Joe: Бросок кобры 2 / G.I. Joe: Retaliation (Джон М. Чу / Jon Chu) [2013, фантастика, боевик, триллер, приключения, ISO, 3D, Blu-Ray 1080p] [Theatrical cut]

Ответить на тему
 
Автор Сообщение

zayatz

Пол: Пол:Муж

Стаж: 3 года 10 месяцев

Сообщений: 530

Россия
Рейтинг

post 30-Июл-2013 12:21 1[+]

[Цитировать] 

G.I. Joe: Бросок кобры 2 / G.I. Joe: Retaliation (2013) [Theatrical cut]

Год выпуска: 2013
Страна: США
Жанр: фантастика, боевик, триллер, приключения
Продолжительность: 1:50:16
Перевод: Профессиональный (полное дублирование)
Язык субтитров: Arabic Indonesian Malay Bulgarian Chinese Czech Greek Estonian Hebrew Hindi Croatian Icelandic Korean Latvian Lithuanian Hungarian Chinese Polish Portuguese Russian Romanian Chinese Slovenian Slovak Serbian Thai Turkish Ukrainian
Режиссер: Джон М. Чу
Сценарий: Ретт Риз, Пол Верник
Продюссер: Лоренцо Ди Бонавентура, Брайан Голднер, Гари Барбер
Оператор: Стивен Ф. Уиндон
Компазитор: Генри Джекман
В ролях:
  • Дуэйн Джонсон, Эдрианн Палики, Брюс Уиллис, Рэй Парк, Ли Бён Хон, Д.Дж. Котрона, Джонатан Прайс, Элоди Юнг, Ченнинг Татум, Люк Брейси


Роли озвучивали:
  • Юрий Деркач, Ирина Киреева, Владимир Герасимов, Александр Гаврилин, Дмитрий Поляновский

Описание:Во второй части отряд «G.I. Joe» вновь объявит вызов группировке «Кобра» и вступит в противостояние с правительством…
Качество: Blu-ray 3D
Формат :AVC
Видео кодек: MPEG-4
Аудио кодек: TrueHD, Dolby Digital Audio
Видео: 1080p , MPEG-4, AVC Video, 27989 kbps, ~23,976 fps
Аудио: Dolby TrueHD Audio English 4419 kbps 7.1 / 48 kHz / 4419 kbps / 24-bit (AC3 Embedded: 5.1 / 48 kHz / 640 kbps / DN -4dB)
Dolby Digital Audio Czech 640 kbps 5.1 / 48 kHz / 640 kbps / DN -4dB
Dolby Digital Audio Hungarian 640 kbps 5.1 / 48 kHz / 640 kbps / DN -4dB
Dolby Digital Audio Polish 640 kbps 5.1 / 48 kHz / 640 kbps / DN -4dB
Dolby Digital Audio Russian 640 kbps 5.1 / 48 kHz / 640 kbps / DN -4dB
Dolby Digital Audio Thai 640 kbps 5.1 / 48 kHz / 640 kbps / DN -4dB
Dolby Digital Audio Turkish 640 kbps 5.1 / 48 kHz / 640 kbps / DN -4dB
Только пять актеров из фильма «Бросок кобры» (2009) появились и в сиквеле. Это Ли Бён Хон, Рэй Парк, Арнольд Вослу, Джонатан Прайс и Ченнинг Татум.
Рестлер Дуэйн Джонсон (Скала) известен своей фразой «Чувствуешь, что готовит для тебя Скала?» («Do you smell what The Rock is cooking?»). Его персонаж из этого фильма в оригинальных комиксах является шеф-поваром.
Первоначальным названием фильма было G.I. Joe: Cobra Strikes («G. I. Joe: Удар кобры»).
Первоначально этот фильм был запланирован к выходу 29 июня 2012 года. В феврале студия Paramount начала большую кампанию с дорогостоящей рекламой во время Супербоула. Но в мае 2012 года было объявлено, что дата выхода фильма переносится на 29 марта 2013 года с целью добавления 3D-эффектов. Позже выяснилось, что реальная причина задержки была в том, чтобы переснять сцены с Ченнингом Татумом. Тестовая аудитория желала больше сцен с Татумом и Дуэйном Джонсоном, к тому же после успеха фильмов «Клятва» (2012) и «Мачо и ботан» (2012) Татум неожиданно стал звездой, обеспечивающей кассовые сборы.
22 ноября произошел несчастный случай, который унес жизнь сотрудника съемочной группы. Майк Хабер работал на подъемнике, который опрокинулся, что и стало причиной гибели мужчины.
У командира группировки «Кобра» изменился вид шлема с последнего фильма. Теперь он стал больше похож на командира из оригинального сериала «Джо-солдат» (1985-1986).
Персонаж Дуэйна Джонсона первоначально должен был появиться в первом фильме.
Глаза Змеи тренируется с персонажем по прозвищу Джинкс, одетой в красную одежду, как в фильме «Джо-солдат: Настоящий американский герой» (1987), где эта героиня появляется впервые. А позже на горе она уже в черно-желтом костюме ниндзя из сериала «Джо-солдат: Сигма-6» (2005-2006).
Для просмотра необходим 3D телевизор!!!
Раздача образом!!! просмотр только на PC, Mac,совместимый mediaplayer!!!
Проверено лично на ArcSoft TotalMedia Theatre 5


General
Complete name
Format : Blu-ray Playlist
File size : 1.11 KiB
Duration : 1h 50mn
Overall bit rate mode : Variable
Overall bit rate : 1 bps

Video
ID : 4114 (0x1012) / 4113 (0x1011)
Menu ID : 1 (0x1)
Format : AVC
Format/Info : Advanced Video Codec
Format profile : Stereo High@L4.1 / High@L4.1
Format settings, CABAC : Yes
Format settings, ReFrames : 3 frames
Codec ID : 27
Duration : 1h 50mn
Bit rate mode : Variable
Bit rate : 48.0 Mbps / 34.7 Mbps
Maximum bit rate : 32.0 Mbps
Width : 1 920 pixels
Height : 1 080 pixels
Display aspect ratio : 16:9
Frame rate : 23.976 fps
Color space : YUV
Chroma subsampling : 4:2:0
Bit depth : 8 bits
Scan type : Progressive
Bits/(Pixel*Frame) : 0.966
Stream size : 26.7 GiB (85%)
Source : 01119.m2ts / 00800.m2ts

Audio #1
ID : 4352 (0x1100)
Menu ID : 1 (0x1)
Format : TrueHD / AC-3
Mode extension : CM (complete main)
Format settings, Endianness : Big
Muxing mode : Stream extension
Codec ID : 131
Duration : 1h 50mn
Bit rate mode : Variable / Constant
Bit rate : 640 Kbps
Maximum bit rate : 6 204 Kbps
Channel(s) : 8 channels / 6 channels
Channel positions : Front: L C R, Side: L R, Back: L R, LFE / Front: L C R, Side: L R, LFE
Sampling rate : 48.0 KHz
Bit depth : 16 bits
Compression mode : Lossless
Stream size : 505 MiB (2%)
Language : English
dialnorm : -27
dialnorm/String : -27 dB
compr : 1.49
compr/String : 1.49 dB
dynrng : 1.02
dynrng/String : 1.02 dB
bsid : 6
dialnorm_Average : -27
dialnorm_Average/String : -27 dB
dialnorm_Minimum : -27
dialnorm_Minimum/String : -27 dB
dialnorm_Maximum : -27
dialnorm_Maximum/String : -27 dB
dialnorm_Count : 260
compr_Average : 5.96
compr_Average/String : 5.96 dB
compr_Minimum : 1.49
compr_Minimum/String : 1.49 dB
compr_Maximum : 6.02
compr_Maximum/String : 6.02 dB
compr_Count : 260
dynrng_Average : 5.98
dynrng_Average/String : 5.98 dB
dynrng_Minimum : 1.02
dynrng_Minimum/String : 1.02 dB
dynrng_Maximum : 6.02
dynrng_Maximum/String : 6.02 dB
dynrng_Count : 260
Source : 00800.m2ts

Audio #2
ID : 4353 (0x1101)
Menu ID : 1 (0x1)
Format : AC-3
Format/Info : Audio Coding 3
Mode extension : CM (complete main)
Format settings, Endianness : Big
Codec ID : 129
Duration : 1h 50mn
Bit rate mode : Constant
Bit rate : 640 Kbps
Channel(s) : 6 channels
Channel positions : Front: L C R, Side: L R, LFE
Sampling rate : 48.0 KHz
Bit depth : 16 bits
Compression mode : Lossy
Stream size : 505 MiB (2%)
Language : Czech
dialnorm : -27
dialnorm/String : -27 dB
compr : 1.49
compr/String : 1.49 dB
dynrng : 1.02
dynrng/String : 1.02 dB
bsid : 6
dialnorm_Average : -27
dialnorm_Average/String : -27 dB
dialnorm_Minimum : -27
dialnorm_Minimum/String : -27 dB
dialnorm_Maximum : -27
dialnorm_Maximum/String : -27 dB
dialnorm_Count : 260
compr_Average : 5.98
compr_Average/String : 5.98 dB
compr_Minimum : 1.49
compr_Minimum/String : 1.49 dB
compr_Maximum : 6.02
compr_Maximum/String : 6.02 dB
compr_Count : 260
dynrng_Average : 5.97
dynrng_Average/String : 5.97 dB
dynrng_Minimum : 1.02
dynrng_Minimum/String : 1.02 dB
dynrng_Maximum : 6.02
dynrng_Maximum/String : 6.02 dB
dynrng_Count : 260
Source : 00800.m2ts

Audio #3
ID : 4354 (0x1102)
Menu ID : 1 (0x1)
Format : AC-3
Format/Info : Audio Coding 3
Mode extension : CM (complete main)
Format settings, Endianness : Big
Codec ID : 129
Duration : 1h 50mn
Bit rate mode : Constant
Bit rate : 640 Kbps
Channel(s) : 6 channels
Channel positions : Front: L C R, Side: L R, LFE
Sampling rate : 48.0 KHz
Bit depth : 16 bits
Compression mode : Lossy
Stream size : 505 MiB (2%)
Language : Hungarian
dialnorm : -27
dialnorm/String : -27 dB
compr : 1.49
compr/String : 1.49 dB
dynrng : 1.02
dynrng/String : 1.02 dB
bsid : 6
dialnorm_Average : -27
dialnorm_Average/String : -27 dB
dialnorm_Minimum : -27
dialnorm_Minimum/String : -27 dB
dialnorm_Maximum : -27
dialnorm_Maximum/String : -27 dB
dialnorm_Count : 260
compr_Average : 6.00
compr_Average/String : 6.00 dB
compr_Minimum : 1.49
compr_Minimum/String : 1.49 dB
compr_Maximum : 6.02
compr_Maximum/String : 6.02 dB
compr_Count : 260
dynrng_Average : 5.99
dynrng_Average/String : 5.99 dB
dynrng_Minimum : 1.02
dynrng_Minimum/String : 1.02 dB
dynrng_Maximum : 6.02
dynrng_Maximum/String : 6.02 dB
dynrng_Count : 260
Source : 00800.m2ts

Audio #4
ID : 4355 (0x1103)
Menu ID : 1 (0x1)
Format : AC-3
Format/Info : Audio Coding 3
Mode extension : CM (complete main)
Format settings, Endianness : Big
Codec ID : 129
Duration : 1h 50mn
Bit rate mode : Constant
Bit rate : 640 Kbps
Channel(s) : 6 channels
Channel positions : Front: L C R, Side: L R, LFE
Sampling rate : 48.0 KHz
Bit depth : 16 bits
Compression mode : Lossy
Stream size : 505 MiB (2%)
Language : Polish
dialnorm : -27
dialnorm/String : -27 dB
compr : 1.49
compr/String : 1.49 dB
dynrng : 1.02
dynrng/String : 1.02 dB
bsid : 6
dialnorm_Average : -27
dialnorm_Average/String : -27 dB
dialnorm_Minimum : -27
dialnorm_Minimum/String : -27 dB
dialnorm_Maximum : -27
dialnorm_Maximum/String : -27 dB
dialnorm_Count : 260
compr_Average : 6.00
compr_Average/String : 6.00 dB
compr_Minimum : 1.49
compr_Minimum/String : 1.49 dB
compr_Maximum : 6.02
compr_Maximum/String : 6.02 dB
compr_Count : 260
dynrng_Average : 6.00
dynrng_Average/String : 6.00 dB
dynrng_Minimum : 1.02
dynrng_Minimum/String : 1.02 dB
dynrng_Maximum : 6.02
dynrng_Maximum/String : 6.02 dB
dynrng_Count : 260
Source : 00800.m2ts

Audio #5
ID : 4356 (0x1104)
Menu ID : 1 (0x1)
Format : AC-3
Format/Info : Audio Coding 3
Mode extension : CM (complete main)
Format settings, Endianness : Big
Codec ID : 129
Duration : 1h 50mn
Bit rate mode : Constant
Bit rate : 640 Kbps
Channel(s) : 6 channels
Channel positions : Front: L C R, Side: L R, LFE
Sampling rate : 48.0 KHz
Bit depth : 16 bits
Compression mode : Lossy
Stream size : 505 MiB (2%)
Language : Russian
dialnorm : -27
dialnorm/String : -27 dB
compr : 1.49
compr/String : 1.49 dB
dynrng : 1.02
dynrng/String : 1.02 dB
bsid : 6
dialnorm_Average : -27
dialnorm_Average/String : -27 dB
dialnorm_Minimum : -27
dialnorm_Minimum/String : -27 dB
dialnorm_Maximum : -27
dialnorm_Maximum/String : -27 dB
dialnorm_Count : 260
compr_Average : 5.98
compr_Average/String : 5.98 dB
compr_Minimum : 1.49
compr_Minimum/String : 1.49 dB
compr_Maximum : 6.02
compr_Maximum/String : 6.02 dB
compr_Count : 260
dynrng_Average : 5.97
dynrng_Average/String : 5.97 dB
dynrng_Minimum : 1.02
dynrng_Minimum/String : 1.02 dB
dynrng_Maximum : 6.02
dynrng_Maximum/String : 6.02 dB
dynrng_Count : 260
Source : 00800.m2ts

Audio #6
ID : 4357 (0x1105)
Menu ID : 1 (0x1)
Format : AC-3
Format/Info : Audio Coding 3
Mode extension : CM (complete main)
Format settings, Endianness : Big
Codec ID : 129
Duration : 1h 50mn
Bit rate mode : Constant
Bit rate : 640 Kbps
Channel(s) : 6 channels
Channel positions : Front: L C R, Side: L R, LFE
Sampling rate : 48.0 KHz
Bit depth : 16 bits
Compression mode : Lossy
Stream size : 505 MiB (2%)
Language : Thai
dialnorm : -27
dialnorm/String : -27 dB
compr : 1.49
compr/String : 1.49 dB
dynrng : 1.02
dynrng/String : 1.02 dB
bsid : 6
dialnorm_Average : -27
dialnorm_Average/String : -27 dB
dialnorm_Minimum : -27
dialnorm_Minimum/String : -27 dB
dialnorm_Maximum : -27
dialnorm_Maximum/String : -27 dB
dialnorm_Count : 260
compr_Average : 6.00
compr_Average/String : 6.00 dB
compr_Minimum : 1.49
compr_Minimum/String : 1.49 dB
compr_Maximum : 6.02
compr_Maximum/String : 6.02 dB
compr_Count : 260
dynrng_Average : 5.98
dynrng_Average/String : 5.98 dB
dynrng_Minimum : 1.02
dynrng_Minimum/String : 1.02 dB
dynrng_Maximum : 6.02
dynrng_Maximum/String : 6.02 dB
dynrng_Count : 260
Source : 00800.m2ts

Audio #7
ID : 4358 (0x1106)
Menu ID : 1 (0x1)
Format : AC-3
Format/Info : Audio Coding 3
Mode extension : CM (complete main)
Format settings, Endianness : Big
Codec ID : 129
Duration : 1h 50mn
Bit rate mode : Constant
Bit rate : 640 Kbps
Channel(s) : 6 channels
Channel positions : Front: L C R, Side: L R, LFE
Sampling rate : 48.0 KHz
Bit depth : 16 bits
Compression mode : Lossy
Stream size : 505 MiB (2%)
Language : Turkish
dialnorm : -27
dialnorm/String : -27 dB
compr : 1.49
compr/String : 1.49 dB
dynrng : 1.02
dynrng/String : 1.02 dB
bsid : 6
dialnorm_Average : -27
dialnorm_Average/String : -27 dB
dialnorm_Minimum : -27
dialnorm_Minimum/String : -27 dB
dialnorm_Maximum : -27
dialnorm_Maximum/String : -27 dB
dialnorm_Count : 260
compr_Average : 5.98
compr_Average/String : 5.98 dB
compr_Minimum : 1.49
compr_Minimum/String : 1.49 dB
compr_Maximum : 6.02
compr_Maximum/String : 6.02 dB
compr_Count : 260
dynrng_Average : 5.99
dynrng_Average/String : 5.99 dB
dynrng_Minimum : 1.02
dynrng_Minimum/String : 1.02 dB
dynrng_Maximum : 6.02
dynrng_Maximum/String : 6.02 dB
dynrng_Count : 260
Source : 00800.m2ts

Text #1
ID : 4608 (0x1200)
Menu ID : 1 (0x1)
Format : PGS
Codec ID : 144
Duration : 1h 50mn
Language : Arabic
Source : 00800.m2ts

Text #2
ID : 4609 (0x1201)
Menu ID : 1 (0x1)
Format : PGS
Codec ID : 144
Duration : 1h 50mn
Language : Indonesian
Source : 00800.m2ts

Text #3
ID : 4610 (0x1202)
Menu ID : 1 (0x1)
Format : PGS
Codec ID : 144
Duration : 1h 50mn
Language : Malay
Source : 00800.m2ts

Text #4
ID : 4611 (0x1203)
Menu ID : 1 (0x1)
Format : PGS
Codec ID : 144
Duration : 1h 50mn
Language : Bulgarian
Source : 00800.m2ts

Text #5
ID : 4612 (0x1204)
Menu ID : 1 (0x1)
Format : PGS
Codec ID : 144
Duration : 1h 50mn
Language : Chinese
Source : 00800.m2ts

Text #6
ID : 4613 (0x1205)
Menu ID : 1 (0x1)
Format : PGS
Codec ID : 144
Duration : 1h 50mn
Language : Czech
Source : 00800.m2ts

Text #7
ID : 4614 (0x1206)
Menu ID : 1 (0x1)
Format : PGS
Codec ID : 144
Duration : 1h 50mn
Language : Greek
Source : 00800.m2ts

Text #8
ID : 4615 (0x1207)
Menu ID : 1 (0x1)
Format : PGS
Codec ID : 144
Duration : 1h 50mn
Language : Estonian
Source : 00800.m2ts

Text #9
ID : 4616 (0x1208)
Menu ID : 1 (0x1)
Format : PGS
Codec ID : 144
Duration : 1h 50mn
Language : English
Source : 00800.m2ts

Text #10
ID : 4617 (0x1209)
Menu ID : 1 (0x1)
Format : PGS
Codec ID : 144
Duration : 1h 50mn
Language : Hebrew
Source : 00800.m2ts

Text #11
ID : 4618 (0x120A)
Menu ID : 1 (0x1)
Format : PGS
Codec ID : 144
Duration : 1h 50mn
Language : Hindi
Source : 00800.m2ts

Text #12
ID : 4619 (0x120B)
Menu ID : 1 (0x1)
Format : PGS
Codec ID : 144
Duration : 1h 50mn
Language : Croatian
Source : 00800.m2ts

Text #13
ID : 4620 (0x120C)
Menu ID : 1 (0x1)
Format : PGS
Codec ID : 144
Duration : 1h 50mn
Language : Icelandic
Source : 00800.m2ts

Text #14
ID : 4621 (0x120D)
Menu ID : 1 (0x1)
Format : PGS
Codec ID : 144
Duration : 1h 50mn
Language : Korean
Source : 00800.m2ts

Text #15
ID : 4622 (0x120E)
Menu ID : 1 (0x1)
Format : PGS
Codec ID : 144
Duration : 1h 50mn
Language : Latvian
Source : 00800.m2ts

Text #16
ID : 4623 (0x120F)
Menu ID : 1 (0x1)
Format : PGS
Codec ID : 144
Duration : 1h 50mn
Language : Lithuanian
Source : 00800.m2ts

Text #17
ID : 4624 (0x1210)
Menu ID : 1 (0x1)
Format : PGS
Codec ID : 144
Duration : 1h 50mn
Language : Hungarian
Source : 00800.m2ts

Text #18
ID : 4625 (0x1211)
Menu ID : 1 (0x1)
Format : PGS
Codec ID : 144
Duration : 1h 50mn
Language : Chinese
Source : 00800.m2ts

Text #19
ID : 4626 (0x1212)
Menu ID : 1 (0x1)
Format : PGS
Codec ID : 144
Duration : 1h 50mn
Language : Polish
Source : 00800.m2ts

Text #20
ID : 4627 (0x1213)
Menu ID : 1 (0x1)
Format : PGS
Codec ID : 144
Duration : 1h 50mn
Language : Portuguese
Source : 00800.m2ts

Text #21
ID : 4628 (0x1214)
Menu ID : 1 (0x1)
Format : PGS
Codec ID : 144
Duration : 1h 50mn
Language : Russian
Source : 00800.m2ts

Text #22
ID : 4629 (0x1215)
Menu ID : 1 (0x1)
Format : PGS
Codec ID : 144
Duration : 1h 50mn
Language : Romanian
Source : 00800.m2ts

Text #23
ID : 4630 (0x1216)
Menu ID : 1 (0x1)
Format : PGS
Codec ID : 144
Duration : 1h 50mn
Language : Chinese
Source : 00800.m2ts

Text #24
ID : 4631 (0x1217)
Menu ID : 1 (0x1)
Format : PGS
Codec ID : 144
Duration : 1h 50mn
Language : Slovenian
Source : 00800.m2ts

Text #25
ID : 4632 (0x1218)
Menu ID : 1 (0x1)
Format : PGS
Codec ID : 144
Duration : 1h 50mn
Language : Slovak
Source : 00800.m2ts

Text #26
ID : 4633 (0x1219)
Menu ID : 1 (0x1)
Format : PGS
Codec ID : 144
Duration : 1h 50mn
Language : Serbian
Source : 00800.m2ts

Text #27
ID : 4634 (0x121A)
Menu ID : 1 (0x1)
Format : PGS
Codec ID : 144
Duration : 1h 50mn
Language : Thai
Source : 00800.m2ts

Text #28
ID : 4635 (0x121B)
Menu ID : 1 (0x1)
Format : PGS
Codec ID : 144
Duration : 1h 50mn
Language : Turkish
Source : 00800.m2ts

Text #29
ID : 4636 (0x121C)
Menu ID : 1 (0x1)
Format : PGS
Codec ID : 144
Duration : 1h 50mn
Language : Ukrainian
Source : 00800.m2ts

Menu
00:00:00.000 : Chapter 1
00:06:08.242 : Chapter 2
00:12:52.313 : Chapter 3
00:17:35.471 : Chapter 4
00:25:37.369 : Chapter 5
00:30:56.187 : Chapter 6
00:39:00.880 : Chapter 7
00:42:40.975 : Chapter 8
00:48:31.241 : Chapter 9
00:54:02.989 : Chapter 10
01:01:46.536 : Chapter 11
01:07:34.675 : Chapter 12
01:13:56.807 : Chapter 13
01:17:54.461 : Chapter 14
01:23:45.979 : Chapter 15
01:31:12.758 : Chapter 16
01:41:13.358 : Chapter 17
01:50:15.817 : Chapter 18

info [Профиль]  [ЛС] 

L

Пол: Пол:Муж

Стаж: 6 лет 7 месяцев

Сообщений: 10781

Украина
Рейтинг

post 30-Июл-2013 18:09 (спустя 5 часов) [-]0[+]

[Цитировать] 

Размер шрифта в основном оформлении поменяйте, пож-та, на 14.

Цитата:

BDRip
Неправда. Поменяйте.

_________________
info [Профиль]  [ЛС] 

zayatz

Пол: Пол:Муж

Стаж: 3 года 10 месяцев

Сообщений: 530

Россия
Рейтинг

post 30-Июл-2013 23:04 (спустя 4 часа) [-]0[+]

[Цитировать] 

14 на этом шрифте совсем мелко смотрится(

_________________
info [Профиль]  [ЛС] 

L

Пол: Пол:Муж

Стаж: 6 лет 7 месяцев

Сообщений: 10781

Украина
Рейтинг

post 31-Июл-2013 07:38 (спустя 8 часов) [-]0[+]

[Цитировать] 

maratdnb
14 шрифт на 2 пункта больше стандартного. Учтите, что не у всех разрешение экрана 1080пе. На экранах с меньшим разрешением раздача будет транспарантом. Поменяйте, пож-та.

_________________
info [Профиль]  [ЛС] 

Demon3x

Пол: Пол:Муж

Стаж: 7 лет 2 месяца

Сообщений: 459

Россия
Рейтинг

post 31-Июл-2013 08:11 (спустя 33 минуты) [-]0[+]

[Цитировать] 

Цитата:

2.2. Запрещается раздача материала в виде образов (включая, но не ограничиваясь Поцелуй.mdf/*.mds, *.iso, *.nrg). Исключения могут быть в соответствии с локальными правилами категорий/разделов.
Нарушаем
info [Профиль]  [ЛС] 

L

Пол: Пол:Муж

Стаж: 6 лет 7 месяцев

Сообщений: 10781

Украина
Рейтинг

post 31-Июл-2013 08:15 (спустя 4 минуты) [-]0[+]

[Цитировать] 

DemonXXX
К 3D разделу это не относится.

_________________
info [Профиль]  [ЛС] 

zayatz

Пол: Пол:Муж

Стаж: 3 года 10 месяцев

Сообщений: 530

Россия
Рейтинг

post 31-Июл-2013 08:17 (спустя 2 минуты) [-]0[+]

[Цитировать] 

DemonXXX писал(а):

Цитата:

2.2. Запрещается раздача материала в виде образов (включая, но не ограничиваясь Поцелуй.mdf/*.mds, *.iso, *.nrg). Исключения могут быть в соответствии с локальными правилами категорий/разделов.
Нарушаем
kolob_144

_________________
info [Профиль]  [ЛС] 

Demon3x

Пол: Пол:Муж

Стаж: 7 лет 2 месяца

Сообщений: 459

Россия
Рейтинг

post 31-Июл-2013 09:19 (спустя 1 час 2 минуты) [-]0[+]

[Цитировать] 

L
А... понял Улыбаюсь
maratdnb
У тебя 3D ТВ? какой, если не секрет?
info [Профиль]  [ЛС] 

zayatz

Пол: Пол:Муж

Стаж: 3 года 10 месяцев

Сообщений: 530

Россия
Рейтинг

post 31-Июл-2013 09:36 (спустя 16 минут) [-]0[+]

[Цитировать] 

DemonXXX писал(а):

L
А... понял Улыбаюсь
maratdnb
У тебя 3D ТВ? какой, если не секрет?
LG 42LA620V отличный телевизор! меня очень радует тем что можно всей семьей смотреть, осталось тока на акустику накопить)

_________________
info [Профиль]  [ЛС] 

post 07-Апр-2014 00:01 (спустя 8 месяцев 6 дней) [-]0[+]

Топик был перенесен из форума 3D Новинки в форум 3D

BZzz
 

ANT0N

Пол: Пол:Муж

Стаж: 5 лет

Сообщений: 5

Россия
Рейтинг

post 08-Июл-2014 19:28 (спустя 11 месяцев 8 дней) [-]0[+]

[Цитировать] 

Подскажите как смотреть ф формате iso на 3D телевизоре????Или как перекодировать iso в формат например mkv чтоб особо качество не терялось! kolob_111
info [Профиль]  [ЛС] 

L

Пол: Пол:Муж

Стаж: 6 лет 7 месяцев

Сообщений: 10781

Украина
Рейтинг

post 08-Июл-2014 19:49 (спустя 21 минута) [-]0[+]

[Цитировать] 

Распакуйте как архив винраром.

_________________
info [Профиль]  [ЛС] 
Показать сообщения:    
Ответить на тему

Текущее время: 05-Дек 04:30

Часовой пояс: GMT + 4



Вы не можете начинать темы
Вы не можете отвечать на сообщения
Вы не можете редактировать свои сообщения
Вы не можете удалять свои сообщения
Вы не можете голосовать в опросах
Вы не можете прикреплять файлы к сообщениям
Вы не можете скачивать файлы