Ошибка

Сад слов / The Garden of Words / Kotonoha no Niwa [Movie][2013][романтика, драма][BDRip][720p][Любительский (JAP+SUB)]

Ответить на тему
 
Автор Сообщение

FoxTrout

Пол: Пол:Муж

Стаж: 4 года 1 месяц

Сообщений: 4

Казахстан
Рейтинг

post 21-Июл-2013 21:08 1[+]

[Цитировать] 

Сад слов / The Garden of Words / Kotonoha no Niwa


Год выпуска: 2013
Страна: Япония
Жанр: романтика, драма
Тип: полнометражный фильм
Продолжительность: 00:45:58
Озвучка:
  • Оригинал
  • loster01 & Emeri (двухголосая)

Субтитры:
  • Semyon44 & Mirron (вшиты, софтсаб)

Режиссер: Синкай Макото / Shinkai Makoto
Студия:
Описание:
15-летний Такао Акидзуки словно бы родился слишком поздно – он не любит токийскую суету, не особо ценит блага цивилизации, а на жизнь мечтает зарабатывать, став обувным мастером. Старшую школу Акидзуки тоже считает бессмысленной, потому не упускает случая пропустить уроки дождливым утром – ведь в парке в это время безлюдно, и можно спокойно насладиться природой, воплощая на бумаге дизайнерские идеи. Вот только в начале сезона дождей в любимой беседке Такао встречает незнакомую молодую женщину, которая при расставании прочла ему старинную танка…

Конечно же, потом они встретились вновь… и вновь, начали общаться, потому что самой природой люди созданы говорить друг с другом. Собственно, много слов героям и не понадобилось – ведь вокруг, в тиши чудесного сада, речь за них вели капли дождя, шум ветра, блеск молнии в разрывах туч и стихи, написанные за тысячу лет до нашего времени. Такао и Юкино (так ее звали) оказались на важном переломе своей жизни - а значит, встреча была не случайна, и посиделки под дождем дали каждому то, чего он на самом деле желал. А хотите узнать, чем все кончилось – смотрите фильм! © Hollow, World Art

Качество: BDRip 720p [LE-Production]
Формат: MKV
Видео: H.264 (8bit) | 1280х720 (16:9) | 23,976 fps | ~3 500 Kbps
Аудио #1: Japanese: 48 kHz, AC-3, 5.1 ch, ~640 Kbps
Аудио #2: Russian: 48 kHz, AC-3, 5.1 ch, ~640 Kbps [в составе контейнера]
Релиз от:

Код:

Format                                   : Matroska
Format version                           : Version 4 / Version 2
File size                                : 1.53 GiB
Duration                                 : 45mn 51s
Overall bit rate                         : 4 783 Kbps
Movie name                               : LE-Production
Encoded date                             : UTC 2013-06-13 18:17:46
Writing application                      : mkvmerge v6.0.0 ('Coming Up For Air') built on Jan 20 2013 09:52:00
Writing library                          : libebml v1.3.0 + libmatroska v1.4.0

Video
ID                                       : 1
Format                                   : AVC
Format/Info                              : Advanced Video Codec
Format profile                           : High@L4.0
Format settings, CABAC                   : Yes
Format settings, ReFrames                : 6 frames
Codec ID                                 : V_MPEG4/ISO/AVC
Duration                                 : 45mn 51s
Bit rate                                 : 3 500 Kbps
Width                                    : 1 280 pixels
Height                                   : 720 pixels
Display aspect ratio                     : 16:9
Frame rate mode                          : Constant
Frame rate                               : 23.976 fps
Color space                              : YUV
Chroma subsampling                       : 4:2:0
Bit depth                                : 8 bits
Scan type                                : Progressive
Bits/(Pixel*Frame)                       : 0.158
Stream size                              : 1.09 GiB (71%)
Title                                    : LE-Production
Writing library                          : x264 core 119 r2106 07efeb4
Encoding settings                        : cabac=1 / ref=6 / deblock=1:1:1 / analyse=0x3:0x133 / me=umh /
subme=7 / psy=1 / psy_rd=0.40:0.00 / mixed_ref=1 / me_range=16 / chroma_me=1 / trellis=2 /
8x8dct=1 / cqm=0 / deadzone=21,11 / fast_pskip=0 / chroma_qp_offset=-2 / threads=3 /
sliced_threads=0 / nr=0 / decimate=1 / interlaced=0 / bluray_compat=0 / constrained_intra=0 /
bframes=5 / b_pyramid=2 / b_adapt=2 / b_bias=0 / direct=3 / weightb=1 / open_gop=0 /
weightp=2 / keyint=250 / keyint_min=23 / scenecut=40 / intra_refresh=0 / rc_lookahead=50 /
rc=2pass / mbtree=1 / bitrate=3500 / ratetol=1.0 / qcomp=0.60 / qpmin=0 / qpmax=69 / qpstep=4 /
cplxblur=20.0 / qblur=0.5 / ip_ratio=1.40 / aq=1:0.60
Language                                 : Japanese
Default                                  : Yes
Forced                                   : Yes

Audio #1
ID                                       : 2
Format                                   : AC-3
Format/Info                              : Audio Coding 3
Mode extension                           : CM (complete main)
Format settings, Endianness              : Big
Codec ID                                 : A_AC3
Duration                                 : 45mn 51s
Bit rate mode                            : Constant
Bit rate                                 : 640 Kbps
Channel(s)                               : 6 channels
Channel positions                        : Front: L C R, Side: L R, LFE
Sampling rate                            : 48.0 KHz
Bit depth                                : 16 bits
Compression mode                         : Lossy
Stream size                              : 210 MiB (13%)
Title                                    : LE-Production (loster01 & Emeri)
Language                                 : Russian
Default                                  : Yes
Forced                                   : Yes

Audio #2
ID                                       : 3
Format                                   : AC-3
Format/Info                              : Audio Coding 3
Mode extension                           : CM (complete main)
Format settings, Endianness              : Big
Codec ID                                 : A_AC3
Duration                                 : 45mn 51s
Bit rate mode                            : Constant
Bit rate                                 : 640 Kbps
Channel(s)                               : 6 channels
Channel positions                        : Front: L C R, Side: L R, LFE
Sampling rate                            : 48.0 KHz
Bit depth                                : 16 bits
Compression mode                         : Lossy
Stream size                              : 210 MiB (13%)
Language                                 : Japanese
Default                                  : No
Forced                                   : No

Text
ID                                       : 4
Format                                   : ASS
Codec ID                                 : S_TEXT/ASS
Codec ID/Info                            : Advanced Sub Station Alpha
Compression mode                         : Lossless
Title                                    : Semyon44 & Mirron
Language                                 : Russian
Default                                  : No
Forced                                   : No
  • Это первая работа у Макото Синкая, в которой он создаёт действительно любовную историю, в прямом понимании этого слова.

  • Также это первая работа у Макото Синкая, которая сделана по собственному сценарию, в отличие от его предыдущих работ.
  • Фоны, используемые в фильме, в основном базируются на фотографиях, сделанных в парке Синдзюку.
Отличие от http://www.tapochek.net/viewtopic.php?t=134550
Альтернативная озвучка.
info [Профиль]  [ЛС] 

post 21-Июл-2013 22:10 (спустя 1 час 2 минуты) [-]0[+]

Топик был перенесен из форума Анонсы в форум HD Rips

Pharaon
 

BlackHorror

Пол: Пол:Муж

Стаж: 3 года 9 месяцев

Сообщений: 654

Рейтинг

post 21-Июл-2013 22:46 (спустя 1 час 37 минут) [-]0[+]

[Цитировать] 

FoxTrout писал(а):

loster01 & Emeri
В подполье же ушли... От Лостер... Доверяй ему потом

_________________
info [Профиль]  [ЛС] 

TirelEngel

Пол: Пол:Муж

Стаж: 7 лет 3 месяца

Сообщений: 1986

Предупреждений: 5

Россия
Рейтинг

post 21-Июл-2013 23:00 (спустя 13 минут) [-]0[+]

[Цитировать] 

Какая картинка сочная... не нудноватая штука?

_________________
info [Профиль]  [ЛС] 

BlackHorror

Пол: Пол:Муж

Стаж: 3 года 9 месяцев

Сообщений: 654

Рейтинг

post 21-Июл-2013 23:01 (спустя 1 минута) [-]0[+]

[Цитировать] 

TirelEngel писал(а):

не нудноватая штука?
Говорят, что вполне добротное
ЗЫЗ-формат

_________________
info [Профиль]  [ЛС] 

FoxTrout

Пол: Пол:Муж

Стаж: 4 года 1 месяц

Сообщений: 4

Казахстан
Рейтинг

post 22-Июл-2013 08:25 (спустя 9 часов) [-]0[+]

[Цитировать] 

BlackHorror писал(а):

В подполье же ушли... От Лостер... Доверяй ему потом
Я, конечно же, не вдавался в подробности, но данная озвучка, по-моему, вполне себе хорошая.

TirelEngel писал(а):

не нудноватая штука?
Лично мне понравилось. Сюжет не претендует на какую-нибудь навязчивую и малопонятную философию, но в то же время он довольно-таки ветвист и интересен.
info [Профиль]  [ЛС] 

BlackHorror

Пол: Пол:Муж

Стаж: 3 года 9 месяцев

Сообщений: 654

Рейтинг

post 22-Июл-2013 12:34 (спустя 4 часа) [-]0[+]

[Цитировать] 

FoxTrout писал(а):

но данная озвучка, по-моему, вполне себе хорошая.
Никто и не говорит, что плохая =)

_________________
info [Профиль]  [ЛС] 
Показать сообщения:    
Ответить на тему

Текущее время: 04-Дек 14:20

Часовой пояс: GMT + 4



Вы не можете начинать темы
Вы не можете отвечать на сообщения
Вы не можете редактировать свои сообщения
Вы не можете удалять свои сообщения
Вы не можете голосовать в опросах
Вы не можете прикреплять файлы к сообщениям
Вы не можете скачивать файлы