Ошибка

Брюс Ли - человек легенда / Bruce Lee: The Legend / A Lenda de Bruce Lee (Расселл Коуторн) [1977, Документальный, биография, DVDRip]

Ответить на тему
 
Автор Сообщение

rimo

Пол: Пол:Муж

Стаж: 5 лет 8 месяцев

Сообщений: 1752

Украина
Рейтинг

post 15-Июл-2013 15:12 2[+]

[Цитировать] 

Брюс Ли - человек легенда / Bruce Lee: The Legend / A Lenda de Bruce Lee


Год выпуска: 1977
Страна: Гонконг
Жанр: Документальный, биография
Продолжительность: 01:25:10
Перевод:
  • Профессиональный двухголосый
  • Профессиональный двухголосый

Субтитры: Отсутствуют

Режиссер:
  • Расселл Коуторн
В ролях:
  • Брюс Ли, Джеки Чан, Джеймс Коберн, Брендон Ли, Саммо Хунг, Шеннон Ли и др.

Описание: Человек-легенда. Где он родился, кто были его родители, жена и дети.
Раритетные кадры о его первых шагах и лучших поединках в кинематографе.
Создание его собственного стиля кунг-фу «Джет Кун До» и тайна его загадочной смерти, полная домыслов и предположений.
Рассказ о зарождении легенды, ее жизни и смерти.
О легенде, которая принесла на запад нечто невиданное, повлиявшая не только на кинематограф, но и изменившая взгляды многих людей. О легенде по имени Брюс Ли.

Рип: ONUFRY
Качество: DVDRip
Формат: AVI
Видео кодек: XviD
Аудио кодек: MP2
Видео: 720x512 (1.41:1), 23.976 fps, XviD build 50 ~1905 kbps avg, 0.22 bit/pixel
Аудио: 48 kHz, AC3 Dolby Digital, 2/0 (L,R) ch, ~192 kbps
Аудио: 48 kHz, AC3 Dolby Digital, 2/0 (L,R) ch, ~192 kbps
Общее
Полное имя : C:\Users\Rimo\Desktop\Brjus.Li.chelovek.legenda.1977.XviD.DVDRip.ONUFRY.avi
Формат : AVI
Формат/Информация : Audio Video Interleave
Размер файла : 1,37 Гбайт
Продолжительность : 1 ч. 25 м.
Общий поток : 2304 Кбит/сек
Программа кодирования : VirtualDubMod 1.5.10.3 | www.virtualdub-fr.org || (build 2550/release)
Библиотека кодирования : VirtualDubMod build 2550/release

Видео
Идентификатор : 0
Формат : MPEG-4 Visual
Профиль формата : Advanced Simple@L5
Параметр BVOP формата : 2
Параметр QPel формата : Нет
Параметр GMC формата : Без точки перехода
Параметр матрицы формата : Default (MPEG)
Идентификатор кодека : XVID
Идентификатор кодека/Подсказка : XviD
Продолжительность : 1 ч. 25 м.
Битрейт : 1906 Кбит/сек
Ширина : 720 пикселей
Высота : 512 пикселей
Соотношение сторон : 1,406
Частота кадров : 23,976 кадра/сек
Цветовое пространство : YUV
Субдискретизация насыщенности : 4:2:0
Битовая глубина : 8 бит
Тип развёртки : Прогрессивная
Метод сжатия : С потерями
Бит/(Пиксели*Кадры) : 0.216
Размер потока : 1,13 Гбайт (83%)
Библиотека кодирования : XviD 1.2.1 (UTC 2008-12-04)

Аудио #1
Идентификатор : 1
Формат : AC-3
Формат/Информация : Audio Coding 3
Расширение режима : CM (complete main)
Параметр Endianness формата : Big
Идентификатор кодека : 2000
Продолжительность : 1 ч. 25 м.
Вид битрейта : Постоянный
Битрейт : 192 Кбит/сек
Каналы : 2 канала
Расположение каналов : Front: L R
Частота : 48,0 КГц
Битовая глубина : 16 бит
Метод сжатия : С потерями
Размер потока : 117 Мбайт (8%)
Выравнивание : Соединение по промежуткам
Продолжительность промежутка : 42 мс. (1,00 видеокадр)
Время предзагрузки промежутка : 512 мс.

Аудио #2
Идентификатор : 2
Формат : AC-3
Формат/Информация : Audio Coding 3
Расширение режима : CM (complete main)
Параметр Endianness формата : Big
Идентификатор кодека : 2000
Продолжительность : 1 ч. 25 м.
Вид битрейта : Постоянный
Битрейт : 192 Кбит/сек
Каналы : 2 канала
Расположение каналов : Front: L R
Частота : 48,0 КГц
Битовая глубина : 16 бит
Метод сжатия : С потерями
Размер потока : 117 Мбайт (8%)
Выравнивание : Разделение по промежуткам
Продолжительность промежутка : 42 мс. (1,00 видеокадр)
Время предзагрузки промежутка : 500 мс
info [Профиль]  [ЛС] 

Leliil

Пол: Пол:Муж

Стаж: 5 лет 7 месяцев

Сообщений: 862

Россия
Рейтинг

post 16-Июл-2013 08:44 (спустя 17 часов) [-]2[+]

[Цитировать] 

Блин, на скриншоте прочитал как: о Брюсели...

_________________
info [Профиль]  [ЛС] 

ToroS

Пол: Пол:Муж

Стаж: 5 лет 4 месяца

Сообщений: 72

Россия
Рейтинг

post 16-Июл-2013 10:19 (спустя 1 час 34 минуты) [-]0[+]

[Цитировать] 

Пост не от этого фильма, а от сериала 2008 года выпуска.

_________________
info [Профиль]  [ЛС] 

mishanay3000

Пол: Пол:Муж

Стаж: 4 года 2 месяца

Сообщений: 42

Россия
Рейтинг

post 16-Июл-2013 22:51 (спустя 12 часов) [-]0[+]

[Цитировать] 

Leliil

Зашел только затем, что бы тоже самое написать kolob_129
info [Профиль]  [ЛС] 

KoMaTo3

Пол: Пол:Муж

Стаж: 7 лет 1 месяц

Сообщений: 127

Россия
Рейтинг

post 07-Сен-2013 00:45 (спустя 1 месяц 21 день) [-]0[+]

[Цитировать] 

Шикарно. Русский звук, конечно... VHS. Посмотрел с удовольствием, в своё время старший брат водил меня в "пиратские" кинотеатры аля "комнатка с телеком", ностальгия. am

_________________
Я не грустный, я трезвый
info [Профиль]  [ЛС] 
Показать сообщения:    
Ответить на тему

Текущее время: 27-Мар 08:53

Часовой пояс: GMT + 4



Вы не можете начинать темы
Вы не можете отвечать на сообщения
Вы не можете редактировать свои сообщения
Вы не можете удалять свои сообщения
Вы не можете голосовать в опросах
Вы не можете прикреплять файлы к сообщениям
Вы не можете скачивать файлы