Ошибка

Авианесущие корабли Советского Союза (2 серии из 2) (Константин Поляков) [2012, Документальный, военный, DVDRip]

Ответить на тему
 
Автор Сообщение

rimo

Пол: Пол:Муж

Стаж: 5 лет 4 месяца

Сообщений: 1752

Украина
Рейтинг

post 15-Июл-2013 13:48 2[+]

[Цитировать] 

Авианесущие корабли Советского Союза (2 серии из 2)


Год выпуска: 2012
Страна: Россия
Жанр: Документальный, военный
Продолжительность: 2 x ~ 00:38:00
Перевод: Оригинал
Субтитры: Отсутствуют

Режиссер:
  • Константин Поляков
В ролях:
  • Летчики, моряки, конструкторы и др.

Описание: История создания авианесущих кораблей нашей страны полна интриг, тайн и роковых ошибок. Идея создания корабля, способного нести на борту самолёты, возникала в Советском Союзе ещё в 20 годах прошлого века. Но по разным причинам к разработке и строительству подобного проекта приступили только в конце 50-х. Почему так долго у великой морской державы - СССР - долгое время не было авианосцев, хотя их имели многие страны мира? Поначалу это были корабли, способные нести на борту только вертолёты. В дальнейшем различные факторы привели к появлению тяжёлых крейсеров, способных нести как вертолёты, так и вертикально взлетающие самолёты. И только в начале 80-х в состав советского флота вошли корабли, способные нести различные типы авиационной техники. Фильм расскажет об истории авианосцев - от первых взлетов самолетов с кораблей, от вертолетоносцев «Москва» и «Ленинград», авианесущих кораблей «Киев», «Минск» и «Баку» до ТАКР «Адмирал флота Советского Союза Кузнецов».
(kolob_200) Броня России
(kolob_200) Крылья России. Ми-24. Винтокрылый боец. История продолжается (2 серии из 2)
(kolob_200) Военная форма одежды. История отечественной военной формы
(kolob_200) Крылья России
(kolob_200) Крылья России. Перехватчики МиГ-25 и МиГ-31. Лучшие в своём деле (2 серии из 2)
(kolob_200) Автомобили в погонах
(kolob_200) Из всех орудий. История отечественной артиллерии
(kolob_200) Военная форма одежды. История отечественной военной формы (5 фильмов из 5)
Рип: alf62
Качество: DVDRip
Формат: AVI
Видео кодек: DivX
Аудио кодек: MP2
Видео: 704x528 (1.33:1), 25 fps, DivX ~1999 kbps avg, 0.22 bit/pixel
Аудио: 48 kHz, Microsoft MPEG, 2 ch, ~192.00 kbps avg
General
Complete name : E:\Авианесущие корабли Советского Союза\Avianesushhie.korabli.Sovetskogo.Sojuza.(2.serii.iz.2).2012.DivX.DVDRip.alf62\Avianesushhie.korabli.Sovetskogo.Sojuza.(1.serija.iz.2).2012.DivX.DVDRip.alf62.avi
Format : AVI
Format/Info : Audio Video Interleave
File size : 596 MiB
Duration : 37mn 50s
Overall bit rate : 2 201 Kbps
Writing application : VirtualDubMod 1.5.10.3 | www.virtualdub-fr.org || (build 2550/release)
Writing library : VirtualDubMod build 2550/release

Video
ID : 0
Format : MPEG-4 Visual
Format profile : Advanced Simple@L5
Format settings, BVOP : 2
Format settings, QPel : No
Format settings, GMC : No warppoints
Format settings, Matrix : Default (MPEG)
Codec ID : DX50
Codec ID/Hint : DivX 5
Duration : 37mn 50s
Bit rate : 2 000 Kbps
Width : 704 pixels
Height : 528 pixels
Display aspect ratio : 4:3
Frame rate : 25.000 fps
Color space : YUV
Chroma subsampling : 4:2:0
Bit depth : 8 bits
Scan type : Progressive
Compression mode : Lossy
Bits/(Pixel*Frame) : 0.215
Stream size : 541 MiB (91%)
Writing library : XviD 73

Audio
ID : 1
Format : AC-3
Format/Info : Audio Coding 3
Mode extension : CM (complete main)
Format settings, Endianness : Big
Codec ID : 2000
Duration : 37mn 48s
Bit rate mode : Constant
Bit rate : 192 Kbps
Channel(s) : 2 channels
Channel positions : Front: L R
Sampling rate : 48.0 KHz
Bit depth : 16 bits
Compression mode : Lossy
Stream size : 51.9 MiB (9%)
Alignment : Split accross interleaves
Interleave, duration : 40 ms (1.00 video frame)
Interleave, preload duration : 500 ms
info [Профиль]  [ЛС] 

cubernoid

Пол: Пол:Муж

Стаж: 6 лет 2 месяца

Сообщений: 117

Греция
Рейтинг

post 15-Июл-2013 23:08 (спустя 9 часов) [-]-1[+]

[Цитировать] 

сколько авианесущих кораблей у америки , а сколько у россии ?

_________________
info [Профиль]  [ЛС] 

Nubreed

Пол: Пол:Муж

Стаж: 6 лет 9 месяцев

Сообщений: 26

Россия
Рейтинг

post 15-Июл-2013 23:17 (спустя 9 минут) [-]1[+]

[Цитировать] 

у Америкосов - авианосцы. у Нас - авианесущие крейсера. две огромные разницы
info [Профиль]  [ЛС] 

nazirel

Пол: Пол:Муж

Стаж: 7 лет 2 месяца

Сообщений: 35

Россия
Рейтинг

post 15-Июл-2013 23:44 (спустя 26 минут) [-]0[+]

[Цитировать] 

нам ядреных подлодок с ракетами хватает везде доставать
info [Профиль]  [ЛС] 

rimo

Пол: Пол:Муж

Стаж: 5 лет 4 месяца

Сообщений: 1752

Украина
Рейтинг

post 16-Июл-2013 01:25 (спустя 1 час 40 минут) [-]1[+]

[Цитировать] 


(kolob_200) Броня России
(kolob_200) Крылья России. Ми-24. Винтокрылый боец. История продолжается (2 серии из 2)
(kolob_200) Военная форма одежды. История отечественной военной формы
(kolob_200) Крылья России
(kolob_200) Крылья России. Перехватчики МиГ-25 и МиГ-31. Лучшие в своём деле (2 серии из 2)
(kolob_200) Автомобили в погонах
(kolob_200) Из всех орудий. История отечественной артиллерии
(kolob_200) Военная форма одежды. История отечественной военной формы (5 фильмов из 5)
info [Профиль]  [ЛС] 

makc8585

Пол: Пол:Муж

Стаж: 7 лет 4 месяца

Сообщений: 255

Россия
Рейтинг

post 16-Июл-2013 10:53 (спустя 9 часов) [-]-3[+]

[Цитировать] 

Разворовать миллиарды это запросто , а строить авианосцы - нет грошей...
info [Профиль]  [ЛС] 
Показать сообщения:    
Ответить на тему

Текущее время: 05-Дек 04:35

Часовой пояс: GMT + 4



Вы не можете начинать темы
Вы не можете отвечать на сообщения
Вы не можете редактировать свои сообщения
Вы не можете удалять свои сообщения
Вы не можете голосовать в опросах
Вы не можете прикреплять файлы к сообщениям
Вы не можете скачивать файлы