Ошибка

Oз: Beликий и Ужacный в 3Д / Оz thе Grеаt аnd Роwеrful 3D (Cэм Pэйми) [2013 г., Фэнтези, Приключения, Комедия, Драма, Семейный, BDRip, 1080p, 3D]

Ответить на тему
 
Автор Сообщение

Dr.Zero

Пол: Пол:Муж

Стаж: 7 лет 5 месяцев

Сообщений: 198

Украина
Рейтинг

post 09-Июл-2013 10:43 1[+]

[Цитировать] 

pic="http://s020.radikal.ru/i700/1307/9d/24d988f996cc.png"
Oз: Beликий и Ужacный в 3Д / Оz thе Grеаt аnd Роwеrful 3D


Год выпуска: 2013
Страна: США (Walt Disney Pictures, Roth Films, Curtis-Donen Productions)
Жанр: Фэнтези, Приключения, Комедия, Драма, Семейный
Продолжительность: 02:10:30
Перевод: Профессиональный (полное дублирование)
Язык субтитров: Русский, Английский, Украинский
Режиссер:
  • Cэм Pэйми

Роли исполняли (дублировали):
    Oz - Джеймс Франко (Олег Фёдоров)
    Theodora - Мила Кунис (Светлана Цвиченко)
    Evanora - Рейчел Вайс (Светлана Кузнецова)
    Annie / Glinda - Мишель Уильямс
    Frank / Finley - Зак Брафф
    Master Tinker - Билл Коббс
    Girl in Wheelchair / China Girl - Джои Кинг (Ирина Обрезкова)
    Knuck - Тони Кокс
    Winkie General - Стивен Р. Харт
    May - Эбигейл Спенсер
    Winkie Gate Keeper - Брюс Кэмпбелл

Когда ураган забрасывает циркового фокусника Оскара Диггса из пыльного Канзаса в волшебную страну Оз, склонный к мошенничеству циркач полагает, что он поймал удачу за хвост — ведь с помощью своих трюков он с легкостью может добыть в новых землях и славу и богатство.
Однако его ждёт встреча с тремя чародейками, Теодорой, Эванорой и Глиндой, которые сомневаются в том, тот ли это великий волшебник, появления которого ждали легковерные жители страны Оз. Волей-неволей, пришелец оказывается втянутым в противостояние эпического масштаба, и ему приходится использовать весь свой «магический» арсенал, с добавлением толики настоящего волшебства.
В ситуации выбора между Добром и Злом, Оскару Диггсу предстоит не только стать Великим и Ужасным Волшебником из Страны Оз, но и немного измениться к лучшему.


Автор рипа Ash61
Премьера: 14 февраля 2013 (7 марта 2013)
Релиз на DVD и Blu-Ray: 6 августа 2013
Бюджет: $215 000 000
Кассовые сборы: $491 832 779
Первые двадцать с половиной минут фильма идут чёрно-белыми и с аспектом 4:3.
General
Unique ID : 249606074044555161826654377833800563575 (0xBBC861984FAB85528134E9DDC2DA7B77)
Complete name : G:DownloadsOzTheGreatAndPowerful(3D-halfOU)2013(Ash61)OzTheGreatAndPowerful(3D-halfOU)2013(Ash61).mkv
Format : Matroska
Format version : Version 2
File size : 10.4 GiB
Duration : 2h 10mn
Overall bit rate : 11.4 Mbps
Movie name : Оз: Великий и Ужасный / Oz the Great and Powerful (3D) 2013
Encoded date : UTC 2013-07-07 07:47:40
Writing application : mkvmerge v5.8.0 ('No Sleep / Pillow') built on Sep 2 2012 15:37:04
Writing library : libebml v1.2.3 + libmatroska v1.3.0

Video
ID : 1
Format : AVC
Format/Info : Advanced Video Codec
Format profile : High@L4.1
Format settings, CABAC : Yes
Format settings, ReFrames : 4 frames
Codec ID : V_MPEG4/ISO/AVC
Duration : 2h 10mn
Bit rate : 9 258 Kbps
Width : 1 920 pixels
Height : 1 080 pixels
Display aspect ratio : 16:9
Frame rate mode : Constant
Frame rate : 23.976 fps
Color space : YUV
Chroma subsampling : 4:2:0
Bit depth : 8 bits
Scan type : Progressive
Bits/(Pixel*Frame) : 0.186
Stream size : 8.44 GiB (81%)
Title : BDRip by Ash61
Writing library : x264 core 129 r2245 bc13772
Encoding settings : cabac=1 / ref=4 / deblock=1:-3:-3 / analyse=0x3:0x113 / me=umh / subme=9 / psy=1 / psy_rd=1.00:0.15 / mixed_ref=1 / me_range=32 / chroma_me=1 / trellis=2 / 8x8dct=1 / cqm=0 / deadzone=21,11 / fast_pskip=1 / chroma_qp_offset=-3 / threads=12 / lookahead_threads=2 / sliced_threads=0 / nr=0 / decimate=1 / interlaced=0 / bluray_compat=0 / constrained_intra=0 / bframes=8 / b_pyramid=2 / b_adapt=2 / b_bias=0 / direct=3 / weightb=1 / open_gop=0 / weightp=2 / keyint=250 / keyint_min=23 / scenecut=40 / intra_refresh=0 / rc_lookahead=60 / rc=crf / mbtree=1 / crf=17.0 / qcomp=0.70 / qpmin=0 / qpmax=69 / qpstep=4 / vbv_maxrate=40000 / vbv_bufsize=30000 / crf_max=0.0 / nal_hrd=none / frame-packing=4 / ip_ratio=1.40 / aq=1:0.70
Language : English
Default : Yes
Forced : No

Audio #1
ID : 2
Format : AC-3
Format/Info : Audio Coding 3
Mode extension : CM (complete main)
Format settings, Endianness : Big
Codec ID : A_AC3
Duration : 2h 10mn
Bit rate mode : Constant
Bit rate : 640 Kbps
Channel(s) : 6 channels
Channel positions : Front: L C R, Side: L R, LFE
Sampling rate : 48.0 KHz
Bit depth : 16 bits
Compression mode : Lossy
Stream size : 597 MiB (6%)
Title : Дубляж (BD EUR)
Language : Russian
Default : Yes
Forced : No

Audio #2
ID : 3
Format : AC-3
Format/Info : Audio Coding 3
Mode extension : CM (complete main)
Format settings, Endianness : Big
Codec ID : A_AC3
Duration : 2h 10mn
Bit rate mode : Constant
Bit rate : 640 Kbps
Channel(s) : 6 channels
Channel positions : Front: L C R, Side: L R, LFE
Sampling rate : 48.0 KHz
Bit depth : 16 bits
Compression mode : Lossy
Stream size : 597 MiB (6%)
Title : Дубляж (BD EUR)
Language : Ukrainian
Default : No
Forced : No

Audio #3
ID : 4
Format : AC-3
Format/Info : Audio Coding 3
Mode extension : CM (complete main)
Format settings, Endianness : Big
Codec ID : A_AC3
Duration : 2h 10mn
Bit rate mode : Constant
Bit rate : 640 Kbps
Channel(s) : 6 channels
Channel positions : Front: L C R, Side: L R, LFE
Sampling rate : 48.0 KHz
Bit depth : 16 bits
Compression mode : Lossy
Stream size : 597 MiB (6%)
Title : Original
Language : English
Default : No
Forced : No

Menu
00:00:00.000 : en:1
00:02:37.699 : en:2
00:06:16.960 : en:3
00:09:57.555 : en:4
00:11:32.692 : en:5
00:15:20.753 : en:6
00:17:47.191 : en:7
00:20:29.478 : en:8
00:24:01.982 : en:9
00:24:49.780 : en:10
00:27:01.662 : en:11
00:29:37.359 : en:12
00:32:43.420 : en:13
00:34:30.193 : en:14
00:37:22.657 : en:15
00:38:57.377 : en:16
00:40:39.145 : en:17
00:42:09.944 : en:18
00:42:52.445 : en:19
00:45:33.481 : en:20
00:47:22.840 : en:21
00:48:32.409 : en:22
00:53:29.832 : en:23
00:55:22.653 : en:24
00:57:15.932 : en:25
00:59:10.839 : en:26
01:02:05.263 : en:27
01:05:33.221 : en:28
01:06:21.102 : en:29
01:09:55.358 : en:30
01:12:20.836 : en:31
01:15:37.783 : en:32
01:18:20.321 : en:33
01:19:47.783 : en:34
01:21:27.883 : en:35
01:26:16.171 : en:36
01:28:08.783 : en:37
01:30:33.219 : en:38
01:34:24.117 : en:39
01:36:57.437 : en:40
01:37:35.975 : en:41
01:41:30.876 : en:42
01:42:30.394 : en:43
01:45:51.762 : en:44
01:48:33.424 : en:45
01:51:23.802 : en:46
01:54:26.318 : en:47
01:55:54.072 : en:48
01:57:58.405 : en:49
01:59:34.417 : en:50
02:02:49.571 : en:51
02:04:32.757 : en:52

Качество: BDRip
Формат: MKV
Формат 3D: Half OverUnder / Вертикальная анаморфная стереопара
Видео кодек: H.264
Аудио кодек: AC3
Видео: AVC / 23,976 fps / 1920х1080p / 9 258 Kbps
Аудио:
#1 - Русский / AC3 / 48 KHz / 5.1 ch / 640 Kbps (Дубляж - BD 2D EUR)
#2 - Украинский / AC3 / 48 KHz / 5.1 ch / 640 Kbps (Дубляж - BD 2D EUR)
#3 - Английский / AC3 / 48 KHz / 5.1 ch / 640 Kbps (Original)
Субтитры внешние (SRT UTF-8):
#1 - Русские Форсированные (включены по умолчанию)
#2 - Русские Полные
#3 - Украинские Форсированные
#4 - Украинские Полные
#5 - English Full
#6 - English SDH
#7 - English SDH (color)

info [Профиль]  [ЛС] 

post 09-Июл-2013 21:53 (спустя 11 часов) [-]0[+]

Топик был перенесен из форума DVD, HD DVD, Blu-ray, HD Rips в форум 3D

Witcher
 

post 07-Апр-2014 00:01 (спустя 8 месяцев 28 дней) [-]0[+]

Топик был перенесен из форума 3D Новинки в форум 3D

BZzz
 
Показать сообщения:    
Ответить на тему

Текущее время: 04-Дек 03:54

Часовой пояс: GMT + 4



Вы не можете начинать темы
Вы не можете отвечать на сообщения
Вы не можете редактировать свои сообщения
Вы не можете удалять свои сообщения
Вы не можете голосовать в опросах
Вы не можете прикреплять файлы к сообщениям
Вы не можете скачивать файлы