Ошибка

Ледниковый период 4: Континентальный дрейф 3D/Ice Age 4: Continental Drift 3D [Half OverUnd](Стив Мартино, Майк Тёрмайер) [2012,мультфильм, комедия, приключения, BDRip 3D 1080p]

Ответить на тему
 
Автор Сообщение

zayatz

Пол: Пол:Муж

Стаж: 3 года 10 месяцев

Сообщений: 530

Россия
Рейтинг

post 24-Июн-2013 14:51 0[+]

[Цитировать] 

Ледниковый период 4: Континентальный дрейф 3D / Ice Age 4: Continental Drift 3D



Год выпуска: 2012
Страна: США
Жанр: мультфильм, комедия, приключения, семейный
Продолжительность: 1:27:45
Перевод: Профессиональный (полное дублирование)
Язык субтитров: отсутствуют
Режиссер: Стив Мартино, Майк Тёрмайер
Сценарий: Майкл Берг, Джейсон Фучс, Лори Форте
Продюссер: Джон С. Донкин, Лори Форте, Карлос Салдана
Художник: Нэш Данниган, Исаак Холце
Компазитор: Джон Пауэлл
В ролях:
  • Рэй Романо, Джон Легуизамо, Куин Латифа, Дэнис Лири, Джош Пек, Питер Динклэйдж, Кеке Палмер, Дженнифер Лопес, Ник Фрост, Азиз Ансари, Джой Бехар, Кристофер Кэмпбелл, Ален Шаба, Эстер Дин, Обри Грэм, Джейсон Фриччион, Джош Гад, Джордж Джейкобс, Ники Минаж, Хезер Моррис, Кунал Найяр, Джеймс Палумбо, Саймон Пегг, Элли Романо, Шонн Уильям Скотт, Мэттью Симмонс, Эдди «Пайолин» Сотело, Патрик Стюарт и др.


Роли озвучивали:
  • Степан Старчиков, Антон Комолов, Ольга Шелест, Александр Груздев,Илья Бледный

Описание:После приключений под землей прошло семь лет. Случился дрейф континентов. Главные герои мультфильма, отделённые от стада, вынуждены использовать айсберг в качестве плота. Они пересекают океан и попадают в неизвестные им ранее земли с экзотическими животными и пиратами, враждебно настроенными к ним. Скрэту удаётся получить свой жёлудь, но он перемещается в новые для него земли.
Сборы:
бюджет $95 000 000
сборы в США $161 321 843
сборы в мире + $715 922 939 = $877 244 782
сборы в России $49 949 934

Проверено на встроенном плейере LG575
Вертикальная анаморфная стереопара.
Для просмотра понадобится 3D Телевизор + 3D проигрыватель (если в телевизоре нет встроенного проигрывателя)
Для просмотра на компьютере понадобится 3D плеер.

Качество:BDRip
Формат :MKV
Видео кодек:H.264
Аудио кодек:AC3
Видео: 1920x1080p (16:9), 23.976 fps, AVC MPEG-4 (x264), High@L4.1, ~7,94 Mbps avg, 0.160 bits/(pixel*frame)
Аудио №1: Русский, AC3, 48.0 kHz, 6 ch ~448 kbps avg

Общее
Уникальный идентификатор : 217470714958303017395337870604560221260 (0xA39B5610FA21F7DFA909C64DA3C7C44C)
Полное имя :
Формат : Matroska
Версия формата : Version 2
Размер файла : 5,25 Гбайт
Продолжительность : 1 ч. 27 м.
Общий поток : 8564 Кбит/сек
Название фильма : ICE_IGE_4_3D_Bluray3DRip
Дата кодирования : UTC 2012-11-04 09:11:44
Программа кодирования : mkvmerge v3.4.0 ('Rapunzel') сборка от May 15 2010 09:38:20
Библиотека кодирования : libebml v0.8.0 + libmatroska v0.9.0

Видео
Идентификатор : 1
Формат : AVC
Формат/Информация : Advanced Video Codec
Профиль формата : High@L4.1
Параметр CABAC формата : Да
Параметр ReFrames формата : 4 кадра
Идентификатор кодека : V_MPEG4/ISO/AVC
Продолжительность : 1 ч. 27 м.
Битрейт : 7946 Кбит/сек
Ширина : 1920 пикселей
Высота : 1080 пикселей
Соотношение сторон : 16:9
Частота кадров : 23,976 кадра/сек
Цветовое пространство : YUV
Субдискретизация насыщенности : 4:2:0
Битовая глубина : 8 бит
Тип развёртки : Прогрессивная
Бит/(Пиксели*Кадры) : 0.160
Размер потока : 4,87 Гбайт (93%)
Библиотека кодирования : x264 core
Default : Да
Forced : Нет
Основные цвета : BT.709-5, BT.1361, IEC 61966-2-4, SMPTE RP177
Характеристики трансфера : BT.709-5, BT.1361
Коэффициенты матрицы : BT.709-5, BT.1361, IEC 61966-2-4 709, SMPTE RP177

Аудио
Идентификатор : 2
Формат : AC-3
Формат/Информация : Audio Coding 3
Расширение режима : CM (complete main)
Идентификатор кодека : A_AC3
Продолжительность : 1 ч. 27 м.
Вид битрейта : Постоянный
Битрейт : 448 Кбит/сек
Каналы : 6 каналов
Расположение каналов : Front: L C R, Side: L R, LFE
Частота : 48,0 КГц
Битовая глубина : 16 бит
Метод сжатия : С потерями
Размер потока : 281 Мбайт (5%)
Язык : Russian
Default : Да
Forced : Нет
info [Профиль]  [ЛС] 

AlienHouse6032

Пол: Пол:Муж

Стаж: 3 года 7 месяцев

Сообщений: 1116

Предупреждений: 4

Канада
Рейтинг

post 24-Июн-2013 20:58 (спустя 6 часов) [-]1[+]

[Цитировать] 

Цитата:

ЗОЛОТАЯ РАЗДАЧА! СКАЧАННОЕ НЕ ЗАСЧИТЫВАЕТСЯ!
Осталось: 17ч. 56мин. 46сек. [
почему так мало ???
info [Профиль]  [ЛС] 
Показать сообщения:    
Ответить на тему

Текущее время: 11-Дек 14:06

Часовой пояс: GMT + 4



Вы не можете начинать темы
Вы не можете отвечать на сообщения
Вы не можете редактировать свои сообщения
Вы не можете удалять свои сообщения
Вы не можете голосовать в опросах
Вы не можете прикреплять файлы к сообщениям
Вы не можете скачивать файлы