Ошибка

(Experimental/Indie Rock) Walk Off the Earth - Discography (3 albums, 7 singles & ep) - 2008-2013, FLAC (tracks+.cue), lossless

Ответить на тему
 
Автор Сообщение

NeedlesKane

Пол: Пол:Муж

Стаж: 6 лет 2 месяца

Сообщений: 199

Казахстан
Рейтинг

post 02-Июн-2013 00:01 0[+]

[Цитировать] 



Жанр: Experimental/Indie Rock || Год выпуска диска: 2008 - 2013 || Страна: Canada || Аудио кодек: FLAC || Битрейт аудио: lossless || Тип релиза: tracks+.cue ||
Общая продолжительность: 03:04:36


О группе:
Walk Off the Earth — канадская инди-рок-группа, образовавшаяся в городе Берлингтон, провинция Онтарио.
Видео на песню Gotye «Somebody That I Used to Know» стало очень популярным на YouTube в начале 2012 года и набрало более 47 миллионов просмотров за 29 дней. После отснятого видео группа получила положительные отзывы от Gotye.
На видео пять человек играют на одной акустической гитаре, так как на тот момент у них под рукой не было других инструментов. В субботу 7 января 2012 актер Рассел Кроу, после просмотра видео, написал им в твиттер. Алисса Милано и Троян Беллисарио стали поклонницами Walk Off the Earth, когда Троян добавила видео на ее странице в Tumblr 20 января 2012 года. Эллен Дедженерес позвала группу на её шоу 23 января 2012, где они играли в живую, снова на одной гитаре, несмотря на простуду участника Джанни.
Так же группа перепела «Someone Like You» певицы Adele, «Party Rock Anthem» группы LMFAO, Yesterday группы The Beatles и некоторых других.
В феврале 2012 года группа подписала контракт записи с Columbia Records.

Состав:
Джанни Люминати — гитара, электрогитара, укулеле, банджо, ударные, вокал, бонг, контрабас, клавишные, бас-гитара.
Райан Маршал — гитара, укулеле, труба, вокал, губная гармоника
Майк Тэйлор — клавишные, контрабас, бас-гитара, вокал
Джоэль Кассади — ударные, гитара
Сара Блэквуд — гитара, электронная гитара, укулеле, банджо, ударные, вокал, клавишные, бубен

Содержание раздачи:
Дата выпуска: 2008
Формат: FLAC (tracks+.cue)
Битрейт: lossless
Продолжительность: 00:40:53
Источник: rutracker.org (MonnaLisa'93)

01. Little Sin (3:12)
02. 100 Proof Life (3:56)
03. Rock Me Away (2:40)
04. Gotta Go (3:27)
05. My Mistakes (3:10)
06. Broke (4:01)
07. Miss Jeppetto (3:57)
08. Spiralling Son (3:39)
09. Stolen (3:19)
10. People Of The Sun (2:00)
11. Smooth Like Stone On A Beach (3:44)
12. W.O.T.E. (3:42)

Код:

X Lossless Decoder version 20120908 (141.1)

XLD extraction logfile from 2012-09-20 14:41:30 -0500

Walk Off The Earth / Smooth Like Stone On A Beach

Used drive : MATSHITA DVD-R UJ-898 (revision HC10)

Ripper mode : XLD Secure Ripper
Disable audio cache : OK for the drive with a cache less than 1375KiB
Make use of C2 pointers : NO
Read offset correction : 102
Max retry count : 20
Gap status : Analyzed, Appended (except HTOA)

TOC of the extracted CD
Track | Start | Length | Start sector | End sector
---------------------------------------------------------
1 | 00:00:00 | 03:12:70 | 0 | 14469
2 | 03:12:70 | 03:56:35 | 14470 | 32204
3 | 07:09:30 | 02:40:45 | 32205 | 44249
4 | 09:50:00 | 03:27:15 | 44250 | 59789
5 | 13:17:15 | 03:10:05 | 59790 | 74044
6 | 16:27:20 | 04:01:14 | 74045 | 92133
7 | 20:28:34 | 03:57:64 | 92134 | 109972
8 | 24:26:23 | 03:39:35 | 109973 | 126432
9 | 28:05:58 | 03:19:58 | 126433 | 141415
10 | 31:25:41 | 02:00:51 | 141416 | 150466
11 | 33:26:17 | 03:44:61 | 150467 | 167327
12 | 37:11:03 | 03:42:15 | 167328 | 183992

AccurateRip Summary
Disc not found in AccurateRip DB.

All Tracks
Album gain : -9.25 dB
Peak : 0.999268
Statistics
Read error : 0
Jitter error (maybe fixed) : 0
Retry sector count : 0
Damaged sector count : 0

Track 01
Filename : /Rips/Walk Off The Earth - Smooth Like Stone On A Beach (2008) [FLAC]/01 Little Sin.flac
Pre-gap length : 00:02:00

Track gain : -9.80 dB
Peak : 0.999237
CRC32 hash (test run) : 8866AB0B
CRC32 hash : 8866AB0B
CRC32 hash (skip zero) : A3D203B2
AccurateRip v1 signature : D6560AB6
AccurateRip v2 signature : EDE77644
->Track not present in AccurateRip database.
Statistics
Read error : 0
Jitter error (maybe fixed) : 0
Retry sector count : 0
Damaged sector count : 0

Track 02
Filename : /Rips/Walk Off The Earth - Smooth Like Stone On A Beach (2008) [FLAC]/02 100 Proof Life.flac
Pre-gap length : 00:02:00

Track gain : -8.73 dB
Peak : 0.999237
CRC32 hash (test run) : 648F33D3
CRC32 hash : 648F33D3
CRC32 hash (skip zero) : 4437A16C
AccurateRip v1 signature : 0E008F46
AccurateRip v2 signature : B56C32CF
->Track not present in AccurateRip database.
Statistics
Read error : 0
Jitter error (maybe fixed) : 0
Retry sector count : 0
Damaged sector count : 0

Track 03
Filename : /Rips/Walk Off The Earth - Smooth Like Stone On A Beach (2008) [FLAC]/03 Rock Me Away.flac
Pre-gap length : 00:02:00

Track gain : -9.48 dB
Peak : 0.999237
CRC32 hash (test run) : F0398DF1
CRC32 hash : F0398DF1
CRC32 hash (skip zero) : 76F59606
AccurateRip v1 signature : 2E7DFD66
AccurateRip v2 signature : BC0D3985
->Track not present in AccurateRip database.
Statistics
Read error : 0
Jitter error (maybe fixed) : 0
Retry sector count : 0
Damaged sector count : 0

Track 04
Filename : /Rips/Walk Off The Earth - Smooth Like Stone On A Beach (2008) [FLAC]/04 Gotta Go.flac
Pre-gap length : 00:02:00

Track gain : -9.38 dB
Peak : 0.999237
CRC32 hash (test run) : E9634E6B
CRC32 hash : E9634E6B
CRC32 hash (skip zero) : DB324C3F
AccurateRip v1 signature : 75A50553
AccurateRip v2 signature : 8846A049
->Track not present in AccurateRip database.
Statistics
Read error : 0
Jitter error (maybe fixed) : 0
Retry sector count : 0
Damaged sector count : 0

Track 05
Filename : /Rips/Walk Off The Earth - Smooth Like Stone On A Beach (2008) [FLAC]/05 My Mistakes.flac
Pre-gap length : 00:02:00

Track gain : -9.20 dB
Peak : 0.999237
CRC32 hash (test run) : 2A69AC02
CRC32 hash : 2A69AC02
CRC32 hash (skip zero) : BC55E502
AccurateRip v1 signature : 180E8BAD
AccurateRip v2 signature : DE099DB9
->Track not present in AccurateRip database.
Statistics
Read error : 0
Jitter error (maybe fixed) : 0
Retry sector count : 0
Damaged sector count : 0

Track 06
Filename : /Rips/Walk Off The Earth - Smooth Like Stone On A Beach (2008) [FLAC]/06 Broke.flac
Pre-gap length : 00:02:00

Track gain : -8.40 dB
Peak : 0.999237
CRC32 hash (test run) : D7D17F7F
CRC32 hash : D7D17F7F
CRC32 hash (skip zero) : 82C3DDDE
AccurateRip v1 signature : 1117349B
AccurateRip v2 signature : 44829C06
->Track not present in AccurateRip database.
Statistics
Read error : 0
Jitter error (maybe fixed) : 0
Retry sector count : 0
Damaged sector count : 0

Track 07
Filename : /Rips/Walk Off The Earth - Smooth Like Stone On A Beach (2008) [FLAC]/07 Miss Jeppetto.flac
Pre-gap length : 00:02:00

Track gain : -8.82 dB
Peak : 0.999237
CRC32 hash (test run) : 971B30E9
CRC32 hash : 971B30E9
CRC32 hash (skip zero) : FBCEA92E
AccurateRip v1 signature : 68A60BE3
AccurateRip v2 signature : 10A89122
->Track not present in AccurateRip database.
Statistics
Read error : 0
Jitter error (maybe fixed) : 0
Retry sector count : 0
Damaged sector count : 0

Track 08
Filename : /Rips/Walk Off The Earth - Smooth Like Stone On A Beach (2008) [FLAC]/08 Spiralling Son.flac
Pre-gap length : 00:02:00

Track gain : -9.08 dB
Peak : 0.999237
CRC32 hash (test run) : DB86A053
CRC32 hash : DB86A053
CRC32 hash (skip zero) : 8C6C3F7F
AccurateRip v1 signature : F3CC8C8D
AccurateRip v2 signature : 7D74A0AC
->Track not present in AccurateRip database.
Statistics
Read error : 0
Jitter error (maybe fixed) : 0
Retry sector count : 0
Damaged sector count : 0

Track 09
Filename : /Rips/Walk Off The Earth - Smooth Like Stone On A Beach (2008) [FLAC]/09 Stolen.flac
Pre-gap length : 00:02:00

Track gain : -8.60 dB
Peak : 0.999237
CRC32 hash (test run) : D7170482
CRC32 hash : D7170482
CRC32 hash (skip zero) : CFCCAC93
AccurateRip v1 signature : 1AAD29FE
AccurateRip v2 signature : 023454CD
->Track not present in AccurateRip database.
Statistics
Read error : 0
Jitter error (maybe fixed) : 0
Retry sector count : 0
Damaged sector count : 0

Track 10
Filename : /Rips/Walk Off The Earth - Smooth Like Stone On A Beach (2008) [FLAC]/10 People Of The Sun.flac
Pre-gap length : 00:02:00

Track gain : -9.60 dB
Peak : 0.999268
CRC32 hash (test run) : 12334299
CRC32 hash : 12334299
CRC32 hash (skip zero) : F4FCF31F
AccurateRip v1 signature : DB54C123
AccurateRip v2 signature : 14CB2A67
->Track not present in AccurateRip database.
Statistics
Read error : 0
Jitter error (maybe fixed) : 0
Retry sector count : 0
Damaged sector count : 0

Track 11
Filename : /Rips/Walk Off The Earth - Smooth Like Stone On A Beach (2008) [FLAC]/11 Smooth Like Stone On A Beach.flac
Pre-gap length : 00:02:00

Track gain : -9.93 dB
Peak : 0.999268
CRC32 hash (test run) : F3E04A0C
CRC32 hash : F3E04A0C
CRC32 hash (skip zero) : 6C6A7578
AccurateRip v1 signature : B3462329
AccurateRip v2 signature : C90AC160
->Track not present in AccurateRip database.
Statistics
Read error : 0
Jitter error (maybe fixed) : 0
Retry sector count : 0
Damaged sector count : 0

Track 12
Filename : /Rips/Walk Off The Earth - Smooth Like Stone On A Beach (2008) [FLAC]/12 W.O.T.E..flac
Pre-gap length : 00:02:00

Track gain : -8.69 dB
Peak : 0.999237
CRC32 hash (test run) : 44AF0622
CRC32 hash : 44AF0622
CRC32 hash (skip zero) : AEDBC9BD
AccurateRip v1 signature : F41CB65E
AccurateRip v2 signature : C5D28FF9
->Track not present in AccurateRip database.
Statistics
Read error : 0
Jitter error (maybe fixed) : 0
Retry sector count : 0
Damaged sector count : 0

No errors occurred

End of status report
Дата выпуска: 2010
Формат: FLAC (tracks+.cue)
Битрейт: lossless
Продолжительность: 01:04:24
Источник: rutracker.org (MonnaLisa'93)

01. Once In A While (3:19)
02. Julia (2:40)
03. Money Tree (3:12)
04. Coolin' (3:50)
05. 100 Proof Life (3:53)
06. Disappointment (2:58)
07. Broke (4:03)
08. Silent Prep (0:22)
09. Luminati (0:09)
10. Once In A While (Chopped n Screwed) (4:28)
11. Petey Com Julia (0:25)
12. Julia (Chopped n Screwed) (3:38)
13. Petey Com Money Tree (1:07)
14. Money Tree (Chopped n Screwed) (4:17)
15. Petey Com Coolin' (0:38)
16. Coolin' (Chopped n Screwed) (5:10)
17. Petey Com 100 Proof Life (0:35)
18. 100 Proof Life (Chopped n Screwed) (5:14)
19. Petey Com Disappointment (1:16)
20. Disappointment (Chopped n Screwed) (4:00)
21. Broke (Chopped n Screwed) (6:15)
22. Petey Com On Secret Track (0:46)
23. Corner Of Queen (1:57)

Код:

Exact Audio Copy V1.0 beta 3 from 29. August 2011

EAC extraction logfile from 2. October 2012, 17:53

Walk Off The Earth / My Rock

Used drive : HL-DT-STDVD-RAM GH22NP20 Adapter: 1 ID: 0

Read mode : Secure
Utilize accurate stream : Yes
Defeat audio cache : Yes
Make use of C2 pointers : No

Read offset correction : 102
Overread into Lead-In and Lead-Out : No
Fill up missing offset samples with silence : Yes
Delete leading and trailing silent blocks : No
Null samples used in CRC calculations : Yes
Used interface : Native Win32 interface for Win NT & 2000
Gap handling : Appended to previous track

Used output format : User Defined Encoder
Selected bitrate : 1024 kBit/s
Quality : High
Add ID3 tag : No
Command line compressor : C:\Program Files (x86)\Exact Audio Copy\Flac\flac.exe
Additional command line options : -8 -V -T "ARTIST=%artist%" -T "TITLE=%title%" -T "ALBUM=%albumtitle%" -T "DATE=%year%" -T "TRACKNUMBER=%tracknr%" -T "GENRE=%genre%" -T "PERFORMER=%albuminterpret%" -T "COMPOSER=%composer%" %haslyrics%--tag-from-file=LYRICS="%lyricsfile%"%haslyrics% -T "ALBUMARTIST=%albumartist%" -T "DISCNUMBER=%cdnumber%" -T "TOTALDISCS=%totalcds%" -T "TOTALTRACKS=%numtracks%" -T "COMMENT=%comment%" %source% -o %dest%

TOC of the extracted CD

Track | Start | Length | Start sector | End sector
---------------------------------------------------------
1 | 2:40.02 | 3:19.51 | 12002 | 26977
2 | 5:59.53 | 2:40.66 | 26978 | 39043
3 | 8:40.44 | 3:12.59 | 39044 | 53502
4 | 11:53.28 | 3:50.31 | 53503 | 70783
5 | 15:43.59 | 3:53.38 | 70784 | 88296
6 | 19:37.22 | 2:58.34 | 88297 | 101680
7 | 22:35.56 | 4:03.46 | 101681 | 119951
8 | 26:39.27 | 0:22.53 | 119952 | 121654
9 | 27:02.05 | 0:09.69 | 121655 | 122398
10 | 27:11.74 | 4:28.72 | 122399 | 142570
11 | 31:40.71 | 0:25.71 | 142571 | 144516
12 | 32:06.67 | 3:38.00 | 144517 | 160866
13 | 35:44.67 | 1:07.26 | 160867 | 165917
14 | 36:52.18 | 4:17.05 | 165918 | 185197
15 | 41:09.23 | 0:38.61 | 185198 | 188108
16 | 41:48.09 | 5:10.59 | 188109 | 211417
17 | 46:58.68 | 0:35.22 | 211418 | 214064
18 | 47:34.15 | 5:14.04 | 214065 | 237618
19 | 52:48.19 | 1:16.48 | 237619 | 243366
20 | 54:04.67 | 4:00.08 | 243367 | 261374
21 | 58:05.00 | 6:15.07 | 261375 | 289506
22 | 64:20.07 | 0:46.51 | 289507 | 293007
23 | 65:06.58 | 1:57.39 | 293008 | 301821

Track 1

Filename C:\EAC Rips\Walk Off The Earth - My Rock (2009) [FLAC]\01 - Once In A While.wav

Pre-gap length 0:02:42.02

Peak level 100.0 %
Extraction speed 1.6 X
Track quality 100.0 %
Test CRC 8ADA280C
Copy CRC 8ADA280C
Track not present in AccurateRip database
Copy OK

Track 2

Filename C:\EAC Rips\Walk Off The Earth - My Rock (2009) [FLAC]\02 - Julia.wav

Peak level 100.0 %
Extraction speed 1.6 X
Track quality 100.0 %
Test CRC 63A83673
Copy CRC 63A83673
Track not present in AccurateRip database
Copy OK

Track 3

Filename C:\EAC Rips\Walk Off The Earth - My Rock (2009) [FLAC]\03 - Money Tree.wav

Peak level 98.2 %
Extraction speed 1.8 X
Track quality 100.0 %
Test CRC 552ED165
Copy CRC 552ED165
Track not present in AccurateRip database
Copy OK

Track 4

Filename C:\EAC Rips\Walk Off The Earth - My Rock (2009) [FLAC]\04 - Coolin'.wav

Peak level 100.0 %
Extraction speed 1.8 X
Track quality 99.9 %
Test CRC A56B5F96
Copy CRC A56B5F96
Track not present in AccurateRip database
Copy OK

Track 5

Filename C:\EAC Rips\Walk Off The Earth - My Rock (2009) [FLAC]\05 - 100 Proof Life.wav

Peak level 99.6 %
Extraction speed 2.1 X
Track quality 100.0 %
Test CRC E8D86FB1
Copy CRC E8D86FB1
Track not present in AccurateRip database
Copy OK

Track 6

Filename C:\EAC Rips\Walk Off The Earth - My Rock (2009) [FLAC]\06 - Disappointment.wav

Peak level 98.8 %
Extraction speed 2.2 X
Track quality 100.0 %
Test CRC E44DAC73
Copy CRC E44DAC73
Track not present in AccurateRip database
Copy OK

Track 7

Filename C:\EAC Rips\Walk Off The Earth - My Rock (2009) [FLAC]\07 - Broke.wav

Peak level 100.0 %
Extraction speed 2.4 X
Track quality 100.0 %
Test CRC ECDB15D9
Copy CRC ECDB15D9
Track not present in AccurateRip database
Copy OK

Track 8

Filename C:\EAC Rips\Walk Off The Earth - My Rock (2009) [FLAC]\08 - Silent Prep.wav

Peak level 0.0 %
Extraction speed 1.0 X
Track quality 100.0 %
Test CRC 48E2D8E6
Copy CRC 48E2D8E6
Track not present in AccurateRip database
Copy OK

Track 9

Filename C:\EAC Rips\Walk Off The Earth - My Rock (2009) [FLAC]\09 - Luminati.wav

Peak level 72.2 %
Extraction speed 0.3 X
Track quality 98.9 %
Test CRC 7A7B38E1
Copy CRC 7A7B38E1
Track not present in AccurateRip database
Copy OK

Track 10

Filename C:\EAC Rips\Walk Off The Earth - My Rock (2009) [FLAC]\10 - Once In A While (Chopped n Screwed).wav

Peak level 99.6 %
Extraction speed 2.5 X
Track quality 100.0 %
Test CRC 78866BB2
Copy CRC 78866BB2
Track not present in AccurateRip database
Copy OK

Track 11

Filename C:\EAC Rips\Walk Off The Earth - My Rock (2009) [FLAC]\11 - Petey Com Julia.wav

Peak level 100.0 %
Extraction speed 1.1 X
Track quality 100.0 %
Test CRC DDE07672
Copy CRC DDE07672
Track not present in AccurateRip database
Copy OK

Track 12

Filename C:\EAC Rips\Walk Off The Earth - My Rock (2009) [FLAC]\12 - Julia (Chopped n Screwed).wav

Peak level 100.0 %
Extraction speed 2.6 X
Track quality 100.0 %
Test CRC 9CC643D0
Copy CRC 9CC643D0
Track not present in AccurateRip database
Copy OK

Track 13

Filename C:\EAC Rips\Walk Off The Earth - My Rock (2009) [FLAC]\13 - Petey Com Money Tree.wav

Peak level 74.1 %
Extraction speed 1.4 X
Track quality 99.8 %
Test CRC DDE3CB99
Copy CRC DDE3CB99
Track not present in AccurateRip database
Copy OK

Track 14

Filename C:\EAC Rips\Walk Off The Earth - My Rock (2009) [FLAC]\14 - Money Tree (Chopped n Screwed).wav

Peak level 100.0 %
Extraction speed 2.7 X
Track quality 100.0 %
Test CRC D28A7DA7
Copy CRC D28A7DA7
Track not present in AccurateRip database
Copy OK

Track 15

Filename C:\EAC Rips\Walk Off The Earth - My Rock (2009) [FLAC]\15 - Petey Com Coolin'.wav

Peak level 100.0 %
Extraction speed 1.1 X
Track quality 99.7 %
Test CRC FF669712
Copy CRC FF669712
Track not present in AccurateRip database
Copy OK

Track 16

Filename C:\EAC Rips\Walk Off The Earth - My Rock (2009) [FLAC]\16 - Coolin' (Chopped n Screwed).wav

Peak level 100.0 %
Extraction speed 2.9 X
Track quality 100.0 %
Test CRC CC68EDC1
Copy CRC CC68EDC1
Track not present in AccurateRip database
Copy OK

Track 17

Filename C:\EAC Rips\Walk Off The Earth - My Rock (2009) [FLAC]\17 - Petey Com 100 Proof Life.wav

Peak level 100.0 %
Extraction speed 1.5 X
Track quality 100.0 %
Test CRC 64C9BFD6
Copy CRC 64C9BFD6
Track not present in AccurateRip database
Copy OK

Track 18

Filename C:\EAC Rips\Walk Off The Earth - My Rock (2009) [FLAC]\18 - 100 Proof Life (Chopped n Screwed).wav

Peak level 100.0 %
Extraction speed 2.7 X
Track quality 99.9 %
Test CRC BE1BA4DA
Copy CRC BE1BA4DA
Track not present in AccurateRip database
Copy OK

Track 19

Filename C:\EAC Rips\Walk Off The Earth - My Rock (2009) [FLAC]\19 - Petey Com Disappointment.wav

Peak level 40.5 %
Extraction speed 2.2 X
Track quality 100.0 %
Test CRC 36D05CCC
Copy CRC 36D05CCC
Track not present in AccurateRip database
Copy OK

Track 20

Filename C:\EAC Rips\Walk Off The Earth - My Rock (2009) [FLAC]\20 - Disappointment (Chopped n Screwed).wav

Peak level 100.0 %
Extraction speed 3.1 X
Track quality 100.0 %
Test CRC BBDAF0DB
Copy CRC BBDAF0DB
Track not present in AccurateRip database
Copy OK

Track 21

Filename C:\EAC Rips\Walk Off The Earth - My Rock (2009) [FLAC]\21 - Broke (Chopped n Screwed).wav

Peak level 100.0 %
Extraction speed 3.4 X
Track quality 100.0 %
Test CRC F237110D
Copy CRC F237110D
Track not present in AccurateRip database
Copy OK

Track 22

Filename C:\EAC Rips\Walk Off The Earth - My Rock (2009) [FLAC]\22 - Petey Com On Secret Track.wav

Peak level 89.5 %
Extraction speed 2.1 X
Track quality 100.0 %
Test CRC EB446718
Copy CRC EB446718
Track not present in AccurateRip database
Copy OK

Track 23

Filename C:\EAC Rips\Walk Off The Earth - My Rock (2009) [FLAC]\23 - Corner Of Queen.wav

Peak level 100.0 %
Extraction speed 2.3 X
Track quality 99.9 %
Test CRC 70C717E7
Copy CRC 70C717E7
Track not present in AccurateRip database
Copy OK

None of the tracks are present in the AccurateRip database

No errors occurred

End of status report

==== Log checksum F022E4E9ED56CA0FFA4F50615083FA2CE5CAC539640D800756E3F9529F00705A ====
Дата выпуска: 2013
Формат: FLAC (tracks+.cue)
Битрейт: lossless
Продолжительность: 00:36:35
Источник: мой диск

01. REVO (3:51)
02. Red Hands (3:01)
03. Gang of Rhythm (3:35)
04. Speeches (3:20)
05. Sometimes (2:52)
06. Shake (2:58)
07. Somebody That I Used To Know (4:09)
08. These Times (3:35)
09. Summer Vibe (3:06)
10. Money Tree (3:09)
11. No Ulterior Motives (2:55)

Код:

Exact Audio Copy V1.0 beta 3 from 29. August 2011

EAC extraction logfile from 15. May 2013, 10:33

Walk Off The Earth / R.E.V.O.

Used drive  : Optiarc DVD RW AD-5170A   Adapter: 1  ID: 0

Read mode               : Secure
Utilize accurate stream : Yes
Defeat audio cache      : No
Make use of C2 pointers : No

Read offset correction                      : 0
Overread into Lead-In and Lead-Out          : No
Fill up missing offset samples with silence : Yes
Delete leading and trailing silent blocks   : No
Null samples used in CRC calculations       : Yes
Used interface                              : Native Win32 interface for Win NT & 2000
Gap handling                                : Appended to previous track

Used output format              : User Defined Encoder
Selected bitrate                : 768 kBit/s
Quality                         : High
Add ID3 tag                     : No
Command line compressor         : C:\Program Files (x86)\FLAC\flac.exe
Additional command line options : -T "artist=%artist%" -T "title=%title%" -T "album=%albumtitle%" -T "date=%year%" -T "tracknumber=%tracknr%" -T "genre=%genre%" -8 --verify %source%

TOC of the extracted CD

     Track |   Start  |  Length  | Start sector | End sector
    ---------------------------------------------------------
        1  |  0:00.15 |  3:51.07 |        15    |    17346   
        2  |  3:51.22 |  3:01.26 |     17347    |    30947   
        3  |  6:52.48 |  3:35.29 |     30948    |    47101   
        4  | 10:28.02 |  3:20.29 |     47102    |    62130   
        5  | 13:48.31 |  2:52.54 |     62131    |    75084   
        6  | 16:41.10 |  2:58.24 |     75085    |    88458   
        7  | 19:39.34 |  4:09.17 |     88459    |   107150   
        8  | 23:48.51 |  3:35.10 |    107151    |   123285   
        9  | 27:23.61 |  3:06.42 |    123286    |   137277   
       10  | 30:30.28 |  3:09.47 |    137278    |   151499   
       11  | 33:40.00 |  2:55.61 |    151500    |   164685   

Track  1

     Filename C:\RIPs\Walk Off the Earth\2013 - R.E.V.O.\01. REVO.wav

     Pre-gap length  0:00:02.15

     Peak level 100.0 %
     Extraction speed 1.7 X
     Track quality 99.9 %
     Test CRC B800EF31
     Copy CRC B800EF31
     Track not present in AccurateRip database
     Copy OK

Track  2

     Filename C:\RIPs\Walk Off the Earth\2013 - R.E.V.O.\02. Red Hands.wav

     Pre-gap length  0:00:00.40

     Peak level 100.0 %
     Extraction speed 2.0 X
     Track quality 100.0 %
     Test CRC 6D3EAF01
     Copy CRC 6D3EAF01
     Track not present in AccurateRip database
     Copy OK

Track  3

     Filename C:\RIPs\Walk Off the Earth\2013 - R.E.V.O.\03. Gang of Rhythm.wav

     Pre-gap length  0:00:00.35

     Peak level 100.0 %
     Extraction speed 2.2 X
     Track quality 100.0 %
     Test CRC CA95733C
     Copy CRC CA95733C
     Track not present in AccurateRip database
     Copy OK

Track  4

     Filename C:\RIPs\Walk Off the Earth\2013 - R.E.V.O.\04. Speeches.wav

     Pre-gap length  0:00:00.70

     Peak level 100.0 %
     Extraction speed 2.3 X
     Track quality 100.0 %
     Test CRC 4DDD5E46
     Copy CRC 4DDD5E46
     Track not present in AccurateRip database
     Copy OK

Track  5

     Filename C:\RIPs\Walk Off the Earth\2013 - R.E.V.O.\05. Sometimes.wav

     Pre-gap length  0:00:00.45

     Peak level 100.0 %
     Extraction speed 2.4 X
     Track quality 100.0 %
     Test CRC BE124892
     Copy CRC BE124892
     Track not present in AccurateRip database
     Copy OK

Track  6

     Filename C:\RIPs\Walk Off the Earth\2013 - R.E.V.O.\06. Shake.wav

     Pre-gap length  0:00:00.38

     Peak level 100.0 %
     Extraction speed 2.4 X
     Track quality 100.0 %
     Test CRC E06043F2
     Copy CRC E06043F2
     Track not present in AccurateRip database
     Copy OK

Track  7

     Filename C:\RIPs\Walk Off the Earth\2013 - R.E.V.O.\07. Somebody That I Used to Know.wav

     Pre-gap length  0:00:01.06

     Peak level 84.2 %
     Extraction speed 2.7 X
     Track quality 100.0 %
     Test CRC 7831658D
     Copy CRC 7831658D
     Track not present in AccurateRip database
     Copy OK

Track  8

     Filename C:\RIPs\Walk Off the Earth\2013 - R.E.V.O.\08. These Times.wav

     Pre-gap length  0:00:00.74

     Peak level 100.0 %
     Extraction speed 2.4 X
     Track quality 99.9 %
     Test CRC 04858E78
     Copy CRC 04858E78
     Track not present in AccurateRip database
     Copy OK

Track  9

     Filename C:\RIPs\Walk Off the Earth\2013 - R.E.V.O.\09. Summer Vibe.wav

     Pre-gap length  0:00:01.16

     Peak level 100.0 %
     Extraction speed 2.4 X
     Track quality 99.9 %
     Test CRC C83120A7
     Copy CRC C83120A7
     Track not present in AccurateRip database
     Copy OK

Track 10

     Filename C:\RIPs\Walk Off the Earth\2013 - R.E.V.O.\10. Money Tree.wav

     Pre-gap length  0:00:00.21

     Peak level 100.0 %
     Extraction speed 2.9 X
     Track quality 100.0 %
     Test CRC B42AEF16
     Copy CRC B42AEF16
     Track not present in AccurateRip database
     Copy OK

Track 11

     Filename C:\RIPs\Walk Off the Earth\2013 - R.E.V.O.\11. No Ulterior Motives.wav

     Pre-gap length  0:00:00.58

     Peak level 100.0 %
     Extraction speed 2.9 X
     Track quality 100.0 %
     Test CRC BCB4431F
     Copy CRC BCB4431F
     Track not present in AccurateRip database
     Copy OK

None of the tracks are present in the AccurateRip database

No errors occurred

End of status report

==== Log checksum F166E438A0618E134716FC4A589F7B1C78B2B8E475038178A9AB77E9C235025 ====
Дата выпуска: 2011
Формат: FLAC (tracks)
Битрейт: lossless
Продолжительность: 00:04:18
Источник: http://walkofftheearth.bandcamp.com/track/someone-like-you

01. Someone Like You (4:18)

Код:

-----------------------

DON'T MODIFY THIS FILE

-----------------------

PERFORMER: auCDtect Task Manager, ver. 1.5.1RC6 build 1.5.1.7
Copyright (c) 2008-2010 y-soft. All rights reserved
http://y-soft.org

ANALYZER: auCDtect: CD records authenticity detector, version 0.8.2
Copyright (c) 2004 Oleg Berngardt. All rights reserved.
Copyright (c) 2004 Alexander Djourik. All rights reserved.

FILE: Walk off the Earth - Someone Like You.flac
Size: 26203851 Hash: 92A992FF362AE621A1BF9C047690A4D3 Accuracy: -m0
Conclusion: CDDA 100%
Signature: FAF4B394324ADE1B5704B151ABC8A47C46B1FA68
Дата выпуска: 2012
Формат: FLAC (tracks)
Битрейт: lossless
Продолжительность: 00:04:25
Источник: http://walkofftheearth.bandcamp.com/track/some-nights

01. Some Nights (4:25)

Код:

-----------------------

DON'T MODIFY THIS FILE

-----------------------

PERFORMER: auCDtect Task Manager, ver. 1.5.1RC6 build 1.5.1.7
Copyright (c) 2008-2010 y-soft. All rights reserved
http://y-soft.org

ANALYZER: auCDtect: CD records authenticity detector, version 0.8.2
Copyright (c) 2004 Oleg Berngardt. All rights reserved.
Copyright (c) 2004 Alexander Djourik. All rights reserved.

FILE: Walk off the Earth - Some Nights.flac
Size: 27425954 Hash: 58A8CBF1077AC125F091704812B8C27F Accuracy: -m0
Conclusion: CDDA 100%
Signature: AF85063003B064D4264BA5186E3B133853AE3F1B
Дата выпуска: 2012
Формат: FLAC (tracks)
Битрейт: lossless
Продолжительность: 00:03:42
Источник: http://walkofftheearth.bandcamp.com/track/payphone-sweary-version

01. Payphone (Sweary Version) (3:42)
Дата выпуска: 2012
Формат: FLAC (tracks)
Битрейт: lossless
Продолжительность: 00:02:47
Источник: http://www.qobuz.com/album/polly-walk-off-the-earth/0886443483569

01. Polly (2:47)

Код:

-----------------------

DON'T MODIFY THIS FILE

-----------------------

PERFORMER: auCDtect Task Manager, ver. 1.5.1RC6 build 1.5.1.7
Copyright (c) 2008-2010 y-soft. All rights reserved
http://y-soft.org

ANALYZER: auCDtect: CD records authenticity detector, version 0.8.2
Copyright (c) 2004 Oleg Berngardt. All rights reserved.
Copyright (c) 2004 Alexander Djourik. All rights reserved.

FILE: 01 - Polly.flac
Size: 17236158 Hash: B949CD6E3AE0693D4D5CD478AB068B36 Accuracy: -m0
Conclusion: CDDA 100%
Signature: FB253987BA2E3558EF5B979DE6E3584D4E5902AD
Дата выпуска: 2012
Формат: FLAC (tracks)
Битрейт: lossless
Продолжительность: 00:04:05
Источник: http://www.discogs.com/Walk-Off-The-Earth-Somebody-...ow/master/419010

01. Somebody That I Used To Know (4:05)

Код:

-----------------------

DON'T MODIFY THIS FILE

-----------------------

PERFORMER: auCDtect Task Manager, ver. 1.5.1RC6 build 1.5.1.7
Copyright (c) 2008-2010 y-soft. All rights reserved
http://y-soft.org

ANALYZER: auCDtect: CD records authenticity detector, version 0.8.2
Copyright (c) 2004 Oleg Berngardt. All rights reserved.
Copyright (c) 2004 Alexander Djourik. All rights reserved.

FILE: 01 - Somebody That I Used To Know.flac
Size: 23107936 Hash: CD955CF5F8AC912D3A0AA6DDA5FB8C29 Accuracy: -m0
Conclusion: CDDA 100%
Signature: 0369418CF6EA26074C1F1BFCAA18421E74551C84
Дата выпуска: 2012
Формат: FLAC (tracks)
Битрейт: lossless
Продолжительность: 00:03:18
Источник: http://www.myplaydirect.com/walk-off-the-earth/r-e-...details/27743634

01. Summer Vibe (3:18)

Код:

-----------------------

DON'T MODIFY THIS FILE

-----------------------

PERFORMER: auCDtect Task Manager, ver. 1.5.1RC6 build 1.5.1.7
Copyright (c) 2008-2010 y-soft. All rights reserved
http://y-soft.org

ANALYZER: auCDtect: CD records authenticity detector, version 0.8.2
Copyright (c) 2004 Oleg Berngardt. All rights reserved.
Copyright (c) 2004 Alexander Djourik. All rights reserved.

FILE: 01 - Summer Vibe.flac
Size: 20559737 Hash: 871594EEADF4C380A52EF42A4A983128 Accuracy: -m0
Conclusion: CDDA 100%
Signature: AA2C72229FCAE20BE9886826E2FA74FF2ED0838A
Дата выпуска: 2012
Формат: FLAC (tracks)
Битрейт: lossless
Продолжительность: 00:03:27
Источник: http://walkofftheearth.bandcamp.com/track/these-times

01. These Times (3:27)

Код:

-----------------------

DON'T MODIFY THIS FILE

-----------------------

PERFORMER: auCDtect Task Manager, ver. 1.5.1RC6 build 1.5.1.7
Copyright (c) 2008-2010 y-soft. All rights reserved
http://y-soft.org

ANALYZER: auCDtect: CD records authenticity detector, version 0.8.2
Copyright (c) 2004 Oleg Berngardt. All rights reserved.
Copyright (c) 2004 Alexander Djourik. All rights reserved.

FILE: Walk off the Earth - These Times.flac
Size: 25127883 Hash: 51DB76EF1112D001B78491FC2E0425D5 Accuracy: -m0
Conclusion: CDDA 99%
Signature: 8B70A022B4F1E6BCD78A090C1970882FBF2AC72E
Дата выпуска: 2012
Формат: FLAC (tracks+.cue)
Битрейт: lossless
Продолжительность: 00:13:03
Источник: http://www.myplaydirect.com/walk-off-the-earth/

01. Red Hands (3:01)
02. Gang of Rhythm (3:35)
03. Speeches (3:20)
04. Summer Vibe (3:06)

Код:

-----------------------

DON'T MODIFY THIS FILE

-----------------------

PERFORMER: auCDtect Task Manager, ver. 1.5.1RC6 build 1.5.1.7
Copyright (c) 2008-2010 y-soft. All rights reserved
http://y-soft.org

ANALYZER: auCDtect: CD records authenticity detector, version 0.8.2
Copyright (c) 2004 Oleg Berngardt. All rights reserved.
Copyright (c) 2004 Alexander Djourik. All rights reserved.

FILE: 04. Summer vibe.flac
Size: 20426410 Hash: E5C85DABA56C1F97324E0585752F157D Accuracy: -m0
Conclusion: CDDA 100%
Signature: 94FB1398044F47C05856229ADCD194335162CF83
FILE: 01. Red hands.flac
Size: 21743571 Hash: E8E9FB7EBA4916949A52BF5FF5B4EF49 Accuracy: -m0
Conclusion: CDDA 100%
Signature: F67A78269E9940FE287903A17519304F83B26E8B
FILE: 02. Gang of rhythm.flac
Size: 24185351 Hash: 9D2089DD4F18DF8336CC7E05284C3E16 Accuracy: -m0
Conclusion: CDDA 100%
Signature: 6E54E20A3232FB0F00BD5A7BC7E709622545258D
FILE: 03. Speeches.flac
Size: 23746929 Hash: 03B343743B13B493FBA3D58D6C3398F0 Accuracy: -m0
Conclusion: CDDA 100%
Signature: 9865C2F99AA44B81FB5666D2C2695FFBC569F83B
Дата выпуска: 2012
Формат: FLAC (tracks)
Битрейт: lossless
Продолжительность: 00:03:34
Источник: http://walkofftheearth.bandcamp.com/track/i-knew-you-were-trouble

01. I Knew You Were Trouble (3:34)

Код:

-----------------------

DON'T MODIFY THIS FILE

-----------------------

PERFORMER: auCDtect Task Manager, ver. 1.5.1RC6 build 1.5.1.7
Copyright (c) 2008-2010 y-soft. All rights reserved
http://y-soft.org

ANALYZER: auCDtect: CD records authenticity detector, version 0.8.2
Copyright (c) 2004 Oleg Berngardt. All rights reserved.
Copyright (c) 2004 Alexander Djourik. All rights reserved.

FILE: 01. I Knew You Were Trouble.flac
Size: 18108888 Hash: A31281EB71A2E5DCFDAC958CF1BEDE89 Accuracy: -m0
Conclusion: CDDA 100%
Signature: CF059275365527D396406F15C4328E5CD922EC0D
info [Профиль]  [ЛС] 

Big23

Стаж: 6 лет 5 месяцев

Сообщений: 993

Зимбабве
Рейтинг

post 03-Июн-2013 22:18 (спустя 1 день 22 часа) [-]0[+]

[Цитировать] 

Как-то... 3-й уже и не такой "пляжно-рэггейский", как первый (ну, кроме "той-самой" и ещё одной песни), могет, это и минус... Для меня -да.

_________________
везде требуются космонавты
info [Профиль]  [ЛС] 

NeedlesKane

Пол: Пол:Муж

Стаж: 6 лет 2 месяца

Сообщений: 199

Казахстан
Рейтинг

post 04-Июн-2013 10:57 (спустя 12 часов) [-]0[+]

[Цитировать] 

А вот для меня как раз наибольший интерес представляет именно "R.E.V.O."
Я даже диск приобрел)

_________________
info [Профиль]  [ЛС] 
Показать сообщения:    
Ответить на тему

Текущее время: 09-Дек 11:50

Часовой пояс: GMT + 4



Вы не можете начинать темы
Вы не можете отвечать на сообщения
Вы не можете редактировать свои сообщения
Вы не можете удалять свои сообщения
Вы не можете голосовать в опросах
Вы не можете прикреплять файлы к сообщениям
Вы не можете скачивать файлы