Ошибка

Крылья России. Истребители Второй мировой войны (4 серии из 4) (Андрей Кулясов) [2012, Авиация, документальный, исторический, DVBRip]

Ответить на тему
 
Автор Сообщение

Khubeev

Пол: Пол:Муж

Стаж: 4 года 3 месяца

Сообщений: 18

Рейтинг

post 11-Май-2013 10:35 1[+]

[Цитировать] 

Крылья России. Истребители Второй мировой войны

Год выпуска: 2012
Страна: Россия
Жанр: Документальный
Продолжительность: 4x ~ 00:38:00
Перевод: Не требуется
Субтитры: Нет
Режиссер: Андрей Кулясов
Описание: Превосходство в воздухе во время войны – это главная составляющая успеха всей компании. Во время Второй мировой войны это превосходство обеспечивали истребители. Развитию этого вида авиации авиапромышленность развитых стран всегда уделяла особое внимание.
Фильм рассказывает об истребителях Второй мировой войны всех воюющих стан – Германии, Японии, Англии, США и, конечно же, Советского Союза.
Качество: DVBRip
Формат: .avi
Видео кодек: XviD
Аудио кодек: AC3
Видео: 704x400 (1.76:1), 25 fps, XviD build 64 ~1646 kbps avg, 0.23 bit/pixel
Аудио: 48 kHz, AC3 Dolby Digital, 2/0 (L,R) ch, ~192.00 kbps avg

Код:

E:\Торенты\TORRENTS.RU\Истребители Второй мировой войны\Istrebiteli.Vtoroj.mirovoj.vojny.(4.serii.iz.4).2012.DivX.DVBRip.alf62\Istrebiteli.Vtoroj.mirovoj.vojny.(1.serja.iz.4).2012.DivX.DVBRip.alf62.avi
Format : AVI
Format/Info : Audio Video Interleave
File size : 502 MiB
Duration : 37mn 58s
Overall bit rate : 1 849 Kbps
Writing application : VirtualDubMod 1.5.10.3 | www.virtualdub-fr.org || (build 2550/release)
Writing library : VirtualDubMod build 2550/release

Video
ID : 0
Format : MPEG-4 Visual
Format profile : Advanced Simple@L5
Format settings, BVOP : 2
Format settings, QPel : No
Format settings, GMC : No warppoints
Format settings, Matrix : Default (MPEG)
Codec ID : DX50
Codec ID/Hint : DivX 5
Duration : 37mn 58s
Bit rate : 1 647 Kbps
Width : 704 pixels
Height : 400 pixels
Display aspect ratio : 16:9
Frame rate : 25.000 fps
Color space : YUV
Chroma subsampling : 4:2:0
Bit depth : 8 bits
Scan type : Progressive
Compression mode : Lossy
Bits/(Pixel*Frame) : 0.234
Stream size : 447 MiB (89%)
Writing library : XviD 64

Audio
ID : 1
Format : AC-3
Format/Info : Audio Coding 3
Mode extension : CM (complete main)
Format settings, Endianness : Big
Codec ID : 2000
Duration : 37mn 58s
Bit rate mode : Constant
Bit rate : 192 Kbps
Channel(s) : 2 channels
Channel positions : Front: L R
Sampling rate : 48.0 KHz
Bit depth : 16 bits
Compression mode : Lossy
Stream size : 52.1 MiB (10%)
Alignment : Split accross interleaves
Interleave, duration : 40 ms (1.00 video frame)
Interleave, preload duration : 500 ms


info [Профиль]  [ЛС] 

Montoya42

Пол: Пол:Муж

Стаж: 3 года 11 месяцев

Сообщений: 194

США
Рейтинг

post 13-Май-2013 15:16 (спустя 2 дня 4 часа) [-]-1[+]

[Цитировать] 

А на обложке Американский истребитель Р-40 Подмигиваю
info [Профиль]  [ЛС] 

kypets82

Стаж: 4 года 11 месяцев

Сообщений: 3

Рейтинг

post 13-Май-2013 15:23 (спустя 6 минут) [-]1[+]

[Цитировать] 

Montoya42 писал(а):

А на обложке Американский истребитель Р-40 Подмигиваю
Фильм рассказывает об истребителях Второй мировой войны всех воюющих стан – Германии, Японии, Англии, США и, конечно же, Советского Союза.
info [Профиль]  [ЛС] 

snus2010

Пол: Пол:Муж

Стаж: 6 лет 11 месяцев

Сообщений: 466

Россия
Рейтинг

post 26-Фев-2015 20:04 (спустя 1 год 9 месяцев) [-]0[+]

[Цитировать] 

Класс! Благодарю. kolob_117
info [Профиль]  [ЛС] 
Показать сообщения:    
Ответить на тему

Текущее время: 11-Дек 02:30

Часовой пояс: GMT + 4



Вы не можете начинать темы
Вы не можете отвечать на сообщения
Вы не можете редактировать свои сообщения
Вы не можете удалять свои сообщения
Вы не можете голосовать в опросах
Вы не можете прикреплять файлы к сообщениям
Вы не можете скачивать файлы