Ошибка

С.Ошуков и Д.Турченков | Простой и понятный SmartResponder [2012, Видеокурс]

Ответить на тему
 
Автор Сообщение

Hunter_2132

Пол: Пол:Муж

Стаж: 3 года 7 месяцев

Сообщений: 1

Россия
Рейтинг

post 02-Май-2013 13:41 0[+]

[Цитировать] 

С.Ошуков и Д.Турченков | Простой и понятный SmartResponder [2012] PCRec

"Название: Простой и понятный SmartResponder
Автор: Сергей Ошуков и Денис Турченков
Год выхода: 2012
Жанр: Обучающее видео
Выпущено: Россия
Продолжительность: 00:53:23
Язык: Русский

Описание: Как правило интернет предприниматели пользуются лишь небольшим набором самых нужных функций в сервисе Smartresponder, тогда как профессионалы задействуют этот сервис на полную катушку. Смотрите видеокурс, где простым, понятным и доступным языком объясняется работа с этим мощным сервисом для ведения Ваших почтовых рассылок.

Посмотрев видеокурс вы научитесь пользоваться сервисом smartresponder, узнаете секреты и фишки работы с этим сервисом.
Рассылка smartresponder представляет собой метод массовой доставки электронных писем с полезной информацией на email-адреса подписчиков, добровольно и самостоятельно подтвердивших свое желание получать такую информацию. Таким образом, у рассылки смартреспондер есть своя принципиальная особенность: каждый подписчик должен предварительно не только подписаться на сайте, но и дополнительно подтвердить свое желание получать рассылку. Это исключает любое давление и навязывание на получение email-писем.

Сервис email-рассылок smartresponder занимает лидирующие позиции в Рунете по ведению персонализированных рассылок. Он обладает рядом преимуществ. Такими, например, как возможность создания и установке стильной формы подписки на своем сайте. Есть функция, позволяющая автоматически подставлять имя подписчика в рассылку smartresponder. Это помогает создать доверительные дружественные отношения со своими подписчиками, а это дорогого стоит.

Вот еще преимущества:
• Высочайшая доставляемость рассылок
• Автоматические серии писем
• Удобный интерфейс в стиле Web 2.0
• Соответствие законам и нормам
• Полное управление Вашими подписчиками
• Красивые HTML-шаблоны писем
• Статистика, которая превзойдет Ваши ожидания
• Мощный RSS2Email ретранслятор
Информация о файле:
Качество: PCRec
Формат: Autorun.ехе
Видеокодек: AVC (Advanced Video Codec)
Видео: 30 кадров/сек, ~300 Кбит/сек, 640х360 (16:9)
Аудиокодек: AAC
Аудио: 44,1 КГц, ~53 Кбит/сек, 2 канала
Общее
Полное имя : D:Простой и понятный SmartResponder\Вступление\index.mp4
Формат : MPEG-4
Профиль формата : Base Media / Version 2
Идентификатор кодека : mp42
Размер файла : 13,4 Мбайт
Продолжительность : 4 м. 58 с.
Общий поток : 376 Кбит/сек
Дата кодирования : UTC 2012-05-06 17:33:33
Дата пометки : UTC 2012-05-06 17:33:33

Видео
Идентификатор : 1
Формат : AVC
Формат/Информация : Advanced Video Codec
Профиль формата : High@L3.0
Параметр CABAC формата : Да
Параметр ReFrames формата : 4 кадра
Идентификатор кодека : avc1
Идентификатор кодека/Информация : Advanced Video Coding
Продолжительность : 4 м. 58 с.
Продолжительность оригинала : 4 м. 58 с.
Вид битрейта : Переменный
Битрейт : 299 Кбит/сек
Ширина : 640 пикселей
Высота : 360 пикселей
Соотношение сторон : 16:9
Режим частоты кадров : Постоянный
Частота кадров : 30,000 кадров/сек
Стандарт вещания : NTSC
Цветовое пространство : YUV
Субдискретизация насыщенности : 4:2:0
Битовая глубина : 8 бит
Тип развёртки : Прогрессивная
Бит/(Пиксели*Кадры) : 0.043
Размер потока : 10,6 Мбайт (79%)
Размер потока оригинала : 11,4 Мбайт (85%)
Язык : English
Дата кодирования : UTC 2012-05-06 17:33:33
Дата пометки : UTC 2012-05-06 17:33:33
mdhd_Duration : 298149
Основные цвета : BT.601-6 525, BT.1358 525, BT.1700 NTSC, SMPTE 170M
Характеристики трансфера : BT.601-6 525, BT.601-6 625, BT.1358 525, BT.1358 625, BT.1700 NTSC, SMPTE 170M
Коэффициенты матрицы : BT.601-6 525, BT.1358 525, BT.1700 NTSC, SMPTE 170M

Аудио
Идентификатор : 2
Формат : AAC
Формат/Информация : Advanced Audio Codec
Профиль формата : LC
Идентификатор кодека : 40
Продолжительность : 4 м. 58 с.
Продолжительность оригинала : 4 м. 58 с.
Вид битрейта : Постоянный
Битрейт : 53,6 Кбит/сек
Каналы : 2 канала
Расположение каналов : Front: L R
Частота : 44,1 КГц
Метод сжатия : С потерями
Размер потока : 1,90 Мбайт (14%)
Размер потока оригинала : 1,90 Мбайт (14%)
Язык : English
Дата кодирования : UTC 2012-05-06 17:33:33
Дата пометки : UTC 2012-05-06 17:33:33
mdhd_Duration : 298186
info [Профиль]  [ЛС] 

post 03-Май-2013 00:34 (спустя 10 часов) [-]0[+]

Топик был перенесен из форума Анонсы в форум Обучающие видеоматериалы

ArShAvIn
 
Показать сообщения:    
Ответить на тему

Текущее время: 08-Дек 10:06

Часовой пояс: GMT + 4



Вы не можете начинать темы
Вы не можете отвечать на сообщения
Вы не можете редактировать свои сообщения
Вы не можете удалять свои сообщения
Вы не можете голосовать в опросах
Вы не можете прикреплять файлы к сообщениям
Вы не можете скачивать файлы