Ошибка

Тихая гавань / Safe Haven (Лассе Халльстрём / Lasse Hallstrom) [2013, США, триллер, драма, мелодрама, детектив, BDRemux 1080p]

Ответить на тему
 
Автор Сообщение

SteveJobs

Пол: Пол:Муж

Стаж: 6 лет 8 месяцев

Сообщений: 18

Украина
Рейтинг

post 17-Апр-2013 18:30 2[+]

[Цитировать] 

Тихая гавань / Safe Haven
«Важно не то, от чего ты бежишь, а то, к чему ты приходишь»

Год выпуска: 2013
Производство: Relativity Media / Temple Hill Entertainment [США]
Жанр: Триллер, драма, мелодрама, детектив
Перевод: Дублированный [лицензия]
Субтитры: Отсутствуют

Режиссер: Лассе Халльстрём
Актеры: Джулианна Хаф, Джош Дюамель, Дэвид Лайонс, Коби Смолдерс, Мими Кирклэнд, Ной Ломакс, Ред Уэст, Робин Маллинз, Ирен Циглер, Рик Рейц

Описание фильма:
Кэти много лет страдала от жестокости мужа. Потеряв надежду на спасение, она совершила отчаянный побег и обрела «тихую гавань» в маленьком спокойном южном городке. Но готова ли Кэти к новым отношениям? Способна ли вновь поверить мужчине, понять его и полюбить? Даже если речь идет о таком обаятельном человеке, как молодой вдовец Алекс Уитли. Алекс и Кэти идут по тонкому льду неизвестности, — а между тем муж Кэти уже начал ее поиски.

Дата мировой премьеры: 13 февраля 2013
Дата российской премьеры: 14 февраля 2013, «Парадиз»
Дата выхода DVD релиза: 16 апреля 2013, «Парадиз / Активижен»
Дата выхода Blu-Ray релиза: 16 апреля 2013, «Парадиз / Активижен»

Рейтинг PG-13 - Детям до 13 лет просмотр не желателен
Возраст 16+ - Зрителям, достигшим 16 лет



Продолжительность: 01:55:32
Качество видео: BDRemux

Формат : Matroska [.mkv]
Видео: MPEG4_AVC/H.264, 1920x1080, ~ 25874 kbps, 23.976 fps
Аудио 1: DTS-HD MA 5.1, 1874 kbps [Русский]
Аудио 2: AC3 5.1, 448 kbps [Русский]
Полное имя : D:\Тихая.гавань-Safe.Haven.(2013).[1080p].BDRemux.mkv
Формат : Matroska
Версия формата : Version 2
Размер файла : 22,8 Гбайт
Продолжительность : 1 ч. 55 м.
Режим общего битрейта : Переменный
Общий поток : 28,2 Мбит/сек
Название фильма : Lelya_K for NNM-Club.ru
Дата кодирования : UTC 2013-04-15 21:34:42
Программа кодирования : mkvmerge v5.7.0 ('The Whirlwind') built on Aug 7 2012 14:11:40
Библиотека кодирования : libebml v1.2.3 + libmatroska v1.3.0

Видео
Идентификатор : 1
Формат : AVC
Формат/Информация : Advanced Video Codec
Профиль формата : High@L4.1
Параметр CABAC формата : Да
Параметр ReFrames формата : 4 кадра
Идентификатор кодека : V_MPEG4/ISO/AVC
Продолжительность : 1 ч. 55 м.
Вид битрейта : Переменный
Битрейт : 25,6 Мбит/сек
Максимальный битрейт : 37,0 Мбит/сек
Ширина : 1920 пикселей
Высота : 1080 пикселей
Соотношение сторон : 16:9
Режим частоты кадров : Постоянный
Частота кадров : 23,976 кадра/сек
Стандарт вещания : NTSC
Цветовое пространство : YUV
Субдискретизация насыщенности : 4:2:0
Битовая глубина : 8 бит
Тип развёртки : Прогрессивная
Бит/(Пиксели*Кадры) : 0.516
Размер потока : 20,7 Гбайт (91%)
Заголовок : Тихая.гавань-Safe.Haven.(2013).[1080p].BDRemux
Язык : English
Default : Да
Forced : Нет
Основные цвета : BT.709
Характеристики трансфера : BT.709
Коэффициенты матрицы : BT.709

Аудио #1
Идентификатор : 2
Формат : DTS
Формат/Информация : Digital Theater Systems
Профиль формата : MA / Core
Идентификатор кодека : A_DTS
Продолжительность : 1 ч. 55 м.
Вид битрейта : Переменный
Битрейт : 1561 Кбит/сек / 1510 Кбит/сек
Каналы : 6 каналов
Расположение каналов : Front: L C R, Side: L R, LFE
Частота : 48,0 КГц
Битовая глубина : 16 бит
Метод сжатия : Без потерь / Lossy
Заголовок : DTS-HD MA 5.1 / 1874 kbps
Язык : Russian
Default : Да
Forced : Нет

Аудио #2
Идентификатор : 3
Формат : AC-3
Формат/Информация : Audio Coding 3
Расширение режима : CM (complete main)
Параметр Endianness формата : Big
Идентификатор кодека : A_AC3
Продолжительность : 1 ч. 55 м.
Вид битрейта : Постоянный
Битрейт : 448 Кбит/сек
Каналы : 6 каналов
Расположение каналов : Front: L C R, Side: L R, LFE
Частота : 48,0 КГц
Битовая глубина : 16 бит
Метод сжатия : С потерями
Размер потока : 370 Мбайт (2%)
Заголовок : AC3 (Embedded) 5.1 / 448 kbps
Язык : Russian
Default : Нет
Forced : Нет

Меню
00:00:00.000 : en:Chapter 00
00:10:43.267 : en:Chapter 01
00:21:46.179 : en:Chapter 02
00:30:56.771 : en:Chapter 03
00:43:43.245 : en:Chapter 04
00:51:54.945 : en:Chapter 05
01:01:17.715 : en:Chapter 06
01:08:24.350 : en:Chapter 07
01:20:51.888 : en:Chapter 08
01:29:58.142 : en:Chapter 09
01:43:14.605 : en:Chapter 10
01:50:27.662 : en:Chapter 11
          
info [Профиль]  [ЛС] 

Zloe Zhivotnoe

Пол: Пол:Муж

Стаж: 7 лет 8 месяцев

Сообщений: 152

Уганда
Рейтинг

post 05-Июн-2013 00:54 (спустя 1 месяц 17 дней) [-]0[+]

[Цитировать] 

Замечательный фильм! Не ожидал!
Концовка, пробрала, аж до глубины души. Замечательный дубляж!

_________________
Born in USSR in 1980.
info [Профиль]  [ЛС] 
Показать сообщения:    
Ответить на тему

Текущее время: 06-Дек 18:11

Часовой пояс: GMT + 4



Вы не можете начинать темы
Вы не можете отвечать на сообщения
Вы не можете редактировать свои сообщения
Вы не можете удалять свои сообщения
Вы не можете голосовать в опросах
Вы не можете прикреплять файлы к сообщениям
Вы не можете скачивать файлы