Ошибка

КВН-2013. Высшая лига. Четвертая 1/8 финала [2013, Тв-шоу, юмор, SATRip]

Ответить на тему
 
Автор Сообщение

Progum

Пол: Пол:Муж

Стаж: 6 лет 8 месяцев

Сообщений: 389

Предупреждений: 1

СССР
Рейтинг

post 01-Апр-2013 09:56 5[+]

[Цитировать] 

КВН-2013. Высшая лига. Четвертая 1/8 финала

Год выпуска: 2013
Страна: Россия
Жанр: Тв-шоу, юмор
Продолжительность:01:49:12

Играют команды:
"Одесские мансы", Одесса, Украина
Сборная Краснодарского края, Краснодар-Сочи
"Союз", Тюменская область
Сборная Чеченской республики, Грозный
"Парапапарам", МГИМО, Москва

Качество: SATRip
Формат: AVI
Видео кодек: XviD
Аудио кодек: MP3
Видео:704x400 (1.76:1), 25 fps, DivX Codec 6.8.5/6.9.1 ~1500 kbps avg, 0.21 bit/pixel
Аудио: 48 kHz, MPEG Layer 3, 2 ch, ~192.00 kbps avg


Video
ID : 0
Format : MPEG-4 Visual
Format settings, BVOP : 1
Format settings, QPel : No
Format settings, GMC : No warppoints
Format settings, Matrix : Default (H.263)
Muxing mode : Packed bitstream
Codec ID : DX50
Codec ID/Hint : DivX 5
Duration : 1h 49mn
Bit rate : 1 500 Kbps
Width : 704 pixels
Height : 400 pixels
Display aspect ratio : 16:9
Frame rate : 25.000 fps
Color space : YUV
Chroma subsampling : 4:2:0
Bit depth : 8 bits
Scan type : Progressive
Compression mode : Lossy
Bits/(Pixel*Frame) : 0.213
Stream size : 1.14 GiB (88%)
Writing library : DivX 6.8.5 (UTC 2009-08-20)

Audio
ID : 1
Format : MPEG Audio
Format version : Version 1
Format profile : Layer 3
Mode : Joint stereo
Codec ID : 55
Codec ID/Hint : MP3
Duration : 1h 49mn
Bit rate mode : Constant
Bit rate : 192 Kbps
Channel(s) : 2 channels
Sampling rate : 48.0 KHz
Compression mode : Lossy
Stream size : 150 MiB (11%)
Alignment : Split accross interleaves
Interleave, duration : 40 ms (1.00 video frame)
Interleave, preload duration : 500 ms

Releases by Progum
info [Профиль]  [ЛС] 
Показать сообщения:    
Ответить на тему

Текущее время: 11-Дек 02:21

Часовой пояс: GMT + 4



Вы не можете начинать темы
Вы не можете отвечать на сообщения
Вы не можете редактировать свои сообщения
Вы не можете удалять свои сообщения
Вы не можете голосовать в опросах
Вы не можете прикреплять файлы к сообщениям
Вы не можете скачивать файлы