Ошибка

Мой маленький пони: Дружба это магия / My Little Pony: Friendship Is Magic / (Лорен Фауст, Джейсон Тиссен) / (Сезон 3, Серия 1-13 из 13) [2012 - 2013 г., Комедия/Семейный/Фэнтези, WEB-DLRip 720p] VO (ShezzyPaw)

Ответить на тему
 
Автор Сообщение

Ritsu

Пол: Пол:Муж

Стаж: 5 лет 5 месяцев

Сообщений: 856

Австралия
Рейтинг

post 06-Мар-2013 22:25 0[+]

[Цитировать] 

Мой Маленький Пони: Дружба Это Магия
My Little Pony: Friendship Is Magic

Оригинальное название: My Little Pony: Friendship Is Magic
Год выпуска: 2012-2013
Страна: США, Канада
Жанр: Комедия/Семейый/Фэнтези
Серия: Серия 1-13 из 13
Сезон: Третий из трёх
Продолжительность: ~00:22:15
Перевод:
  • Одноголосый закадровый
Озвучка :
Режиссер:
  • Лорен Фауст, Джейсон Тиссен / Lauren Faust, Jayson Thiessen
Роли озвучивали:
  • Тара Стронг, Эшлин Бол, Клэр Корлетт, Мишель Кребер, Андреа Либман и другие

Описание:
Третий сезон мультсериала Мой Маленький Пони. Главная героиня - единорог Твайлайт Спаркл, любимая ученица Принцессы Селестии, она всё время сидела за книгами и считал что друзья не нужны. Принцесса Селестия даёт ей задание найти друзей и посылает Твайлайт вместе с её помошником, драконом по имени Спайк, в небольшой городок Понивилль. Там она встречает своих новых друзей: задиристую Рейнбоу Деш, модницу Рарити, трудолюбивую Эплджек, стеснительную Флатершай и очень весёлую и непредсказуемую Пинки Пай. Вместе они решают все возникающие проблемы и идут к новым открытиям. Твайлайт и пятеро её друзей постоянно узнают что-то новое о дружбе.

Рейтинг:
1. The Crystal Empire, part 1
2. The Crystal Empire, part 2
3. Too Many Pinkie Pies
4. One Bad Apple
5. Magic Duel
6. Sleepless in Ponyville
7. Wonderbolt Academy
8. Apple Family Reunion
9. Spike at Your Service
10. Keep Calm and Flutter On
11. Just For Sidekicks
12. Games Ponies Play
13. Magical Mystery Cure

Качество: WEB-DLRip
Формат: MKV
Данные видео: AVC, 1280x720, 23.976 fps, 1500 kbps
Данные аудио: AC3, 48 kHz, 6 ch, 384 kbps
Субтитры : Нет
Полное имя                       : I:\Downloads\Video\MLP FIM 3 [rus]\mlp.fim.s03e01.web-dlrip.rus.shezzypaw.mkv 
Формат : Matroska
Версия формата : Version 2
Размер файла : 298 Мбайт
Продолжительность : 22 м.
Общий поток : 1887 Кбит/сек
Дата кодирования : UTC 2012-11-23 09:42:49
Программа кодирования : mkvmerge v5.8.0 ('No Sleep / Pillow') built on Sep 2 2012 15:37:04
Библиотека кодирования : libebml v1.2.3 + libmatroska v1.3.0
Видео
Идентификатор : 1
Формат : AVC
Формат/Информация : Advanced Video Codec
Профиль формата : High@L3.1
Параметр CABAC формата : Да
Параметр ReFrames формата : 4 кадра
Идентификатор кодека : V_MPEG4/ISO/AVC
Продолжительность : 22 м.
Битрейт : 1500 Кбит/сек
Ширина : 1280 пикселей
Высота : 720 пикселей
Соотношение сторон : 16:9
Режим частоты кадров : Переменный
Частота кадров : 23,976 кадра/сек
Цветовое пространство : YUV
Субдискретизация насыщенности : 4:2:0
Битовая глубина : 8 бит
Тип развёртки : Прогрессивная
Бит/(Пиксели*Кадры) : 0.068
Размер потока : 231 Мбайт (78%)
Библиотека кодирования : x264 core 120
Язык : English
Основные цвета : BT.709-5, BT.1361, IEC 61966-2-4, SMPTE RP177
Характеристики трансфера : BT.709-5, BT.1361
Коэффициенты матрицы : BT.709-5, BT.1361, IEC 61966-2-4 709, SMPTE RP177
Аудио
Идентификатор : 2
Формат : AC-3
Формат/Информация : Audio Coding 3
Расширение режима : CM (complete main)
Идентификатор кодека : A_AC3
Продолжительность : 22 м.
Вид битрейта : Постоянный
Битрейт : 384 Кбит/сек
Каналы : 6 каналов
Расположение каналов : Front: L C R, Side: L R, LFE
Частота : 48,0 КГц
Битовая глубина : 16 бит
Метод сжатия : С потерями
Размер потока : 60,6 Мбайт (20%)
Язык : Russian


info [Профиль]  [ЛС] 
Показать сообщения:    
Ответить на тему

Текущее время: 05-Дек 22:39

Часовой пояс: GMT + 4



Вы не можете начинать темы
Вы не можете отвечать на сообщения
Вы не можете редактировать свои сообщения
Вы не можете удалять свои сообщения
Вы не можете голосовать в опросах
Вы не можете прикреплять файлы к сообщениям
Вы не можете скачивать файлы