Ошибка

КВН-2013. Высшая лига. Вторая 1/8 финала [2013, Тв-шоу, юмор, SATRip]

Ответить на тему
 
Автор Сообщение

Progum

Пол: Пол:Муж

Стаж: 6 лет 8 месяцев

Сообщений: 389

Предупреждений: 1

СССР
Рейтинг

post 03-Мар-2013 19:46 0[+]

[Цитировать] 

КВН-2013. Высшая лига. 1/8 финала. Вторая игра

Год выпуска: 2013
Страна: Россия
Жанр: Тв-шоу, юмор
Продолжительность:01:49:12

Играют команды:
«Евразы-РостГМУ», Ростов-на-Дону
«Азия MIX», Бишкек
«Кефир», Нягань
Сборная Физтеха, Долгопрудный
«ГородЪ ПятигорскЪ», Пятигорск

Качество: SATRip
Формат: AVI
Видео кодек: XviD
Аудио кодек: MP3
Видео: 704x400 (1.76:1), 25 fps, XviD build 50 ~1650 kbps avg, 0.23 bit/pixel
Аудио: 48 kHz, MPEG Layer 3, 2 ch, ~128.00 kbps avg
Video
ID : 0
Format : MPEG-4 Visual
Format profile : Simple@L3
Format settings, BVOP : No
Format settings, QPel : No
Format settings, GMC : No warppoints
Format settings, Matrix : Default (H.263)
Codec ID : DX50
Codec ID/Hint : DivX 5
Duration : 1h 52mn
Bit rate : 1 650 Kbps
Width : 704 pixels
Height : 400 pixels
Display aspect ratio : 16:9
Frame rate : 25.000 fps
Color space : YUV
Chroma subsampling : 4:2:0
Bit depth : 8 bits
Scan type : Progressive
Compression mode : Lossy
Bits/(Pixel*Frame) : 0.234
Stream size : 1.30 GiB (92%)
Writing library : XviD 1.2.1 (UTC 2008-12-04)

Audio
ID : 1
Format : MPEG Audio
Format version : Version 1
Format profile : Layer 3
Mode : Joint stereo
Mode extension : MS Stereo
Codec ID : 55
Codec ID/Hint : MP3
Duration : 1h 52mn
Bit rate mode : Constant
Bit rate : 128 Kbps
Channel(s) : 2 channels
Sampling rate : 48.0 KHz
Compression mode : Lossy
Stream size : 103 MiB (7%)
Alignment : Split accross interleaves
Interleave, duration : 40 ms (1.00 video frame)
Interleave, preload duration : 500 ms
Writing library : LAME3.98.2

Releases by Progum
info [Профиль]  [ЛС] 

Fantomas00792

Пол: Пол:Муж

Стаж: 7 лет 2 месяца

Сообщений: 11

СССР
Рейтинг

post 04-Мар-2013 15:47 (спустя 20 часов) [-]0[+]

[Цитировать] 

Отличная игра получилась!
info [Профиль]  [ЛС] 

xad_jek

Пол: Пол:Муж

Стаж: 5 лет 1 месяц

Сообщений: 16

Украина
Рейтинг

post 05-Мар-2013 03:02 (спустя 11 часов) [-]0[+]

[Цитировать] 

чесно говоря игра не очень...пятигорск только тянул, да и разминка впринципе нормальная была. Первая игра на порядок лучше
info [Профиль]  [ЛС] 
Показать сообщения:    
Ответить на тему

Текущее время: 11-Дек 16:00

Часовой пояс: GMT + 4



Вы не можете начинать темы
Вы не можете отвечать на сообщения
Вы не можете редактировать свои сообщения
Вы не можете удалять свои сообщения
Вы не можете голосовать в опросах
Вы не можете прикреплять файлы к сообщениям
Вы не можете скачивать файлы