Ошибка

(Classical, Electronic, Stage & Screen) The Bourne Trilogy (John Powell and Moby) / Борн Трилогия - (2002,2004,2007) FLAC (tracks+.cue), lossless

Ответить на тему
 
Автор Сообщение

bitrate

Пол: Пол:Муж

Стаж: 7 лет 8 месяцев

Сообщений: 144

Украина
Рейтинг

post 29-Сен-2009 02:38 0[+]

[Цитировать] 

The Bourne Trilogy / Борн: Трилогия
Феноменальный экшн и феерическое действо будут держать вас до самого конца, до финальной песни Extreme Ways.

John Powell and Moby - The Bourne Identity / Идентификация Борна
Жанр: Classical, Electronic, Stage & Screen
Происхождение исполнителя: USA
Год издания данного носителя: 2002
Страна-производитель носителя: USA
Тип релиза: tracks+.cue
Аудио кодек: FLAC
Битрейт аудио: lossless
Продолжительность: 00:54:51
Полиграфия: присутствует
Лейбл: Varèse Sarabande
Каталоговый номер: VSD-6367

Треклист:
1. John Powell - Main Titles (4:19)
2. John Powell - Bourne Gets Well (1:21)
3. John Powell - Treadstone Assassins (2:12)
4. John Powell - At The Bank (4:07)
5. John Powell - Bourne On Land (1:42)
6. John Powell - Escape From Embassy (3:13)
7. John Powell - The Drive To Paris (1:30)
8. John Powell - The Apartment (3:27)
9. John Powell - At The Hairdressers (1:31)
10. John Powell - Hotel Regina (2:12)
11. John Powell - The Investigation (1:40)
12. John Powell - Taxi Ride (3:43)
13. John Powell - At The Farmhouse (2:54)
14. John Powell - Jason Phones It In (3:04)
15. John Powell - On Bridge Number 9 (3:45)
16. John Powell - Jason's Theme (2:21)
17. John Powell - Mood Build (3:36)
18. John Powell - The Bourne Identity (5:58)
19. John Powell - Drum And Bass Remix (2:16)

Код:

EAC extraction logfile from 13. September 2008, 0:17 for CD
John Powell / The Bourne Identity

Used drive  : TSSTcorpDVD+-RW TS-L632H   Adapter: 0  ID: 0
Read mode   : Secure with NO C2, accurate stream, disable cache
Read offset correction : 12
Overread into Lead-In and Lead-Out : No

Used output format : C:\Archivos de programa\Exact Audio Copy\flac.exe   (User Defined Encoder)
                     192 kBit/s
                     Additional command line options : -8 -A tukey(0.25) -A gauss(0.1875) -b 4096 -V -T "artist=%a" -T "title=%t" -T "album=%g" -T "date=%y" -T "tracknumber=%n" -T "genre=%m" %s --sector-align

Other options      :
    Fill up missing offset samples with silence : Yes
    Delete leading and trailing silent blocks : No
    Installed external ASPI interface

Track  1
     Filename C:\Documents and Settings\jsegur\Mis documentos\Personal\Rip\John Powell - The Bourne Identity (2002)\01 - John Powell - Main Titles.wav

     Pre-gap length  0:00:02.00

     Peak level 96.2 %
     Track quality 99.9 %
     Test CRC EB6DC8D7
     Copy CRC EB6DC8D7
     Copy OK

Track  2
     Filename C:\Documents and Settings\jsegur\Mis documentos\Personal\Rip\John Powell - The Bourne Identity (2002)\02 - John Powell - Bourne Gets Well.wav

     Peak level 93.8 %
     Track quality 99.8 %
     Test CRC CAAD1F59
     Copy CRC CAAD1F59
     Copy OK

Track  3
     Filename C:\Documents and Settings\jsegur\Mis documentos\Personal\Rip\John Powell - The Bourne Identity (2002)\03 - John Powell - Treadstone Assassins.wav

     Peak level 93.4 %
     Track quality 100.0 %
     Test CRC 83490AC1
     Copy CRC 83490AC1
     Copy OK

Track  4
     Filename C:\Documents and Settings\jsegur\Mis documentos\Personal\Rip\John Powell - The Bourne Identity (2002)\04 - John Powell - At The Bank.wav

     Peak level 92.9 %
     Track quality 99.9 %
     Test CRC FD23E0DE
     Copy CRC FD23E0DE
     Copy OK

Track  5
     Filename C:\Documents and Settings\jsegur\Mis documentos\Personal\Rip\John Powell - The Bourne Identity (2002)\05 - John Powell - Bourne On Land.wav

     Peak level 78.7 %
     Track quality 100.0 %
     Test CRC C980481E
     Copy CRC C980481E
     Copy OK

Track  6
     Filename C:\Documents and Settings\jsegur\Mis documentos\Personal\Rip\John Powell - The Bourne Identity (2002)\06 - John Powell - Escape From Embassy.wav

     Peak level 95.5 %
     Track quality 99.9 %
     Test CRC 380C7F56
     Copy CRC 380C7F56
     Copy OK

Track  7
     Filename C:\Documents and Settings\jsegur\Mis documentos\Personal\Rip\John Powell - The Bourne Identity (2002)\07 - John Powell - The Drive To Paris.wav

     Peak level 83.8 %
     Track quality 100.0 %
     Test CRC 27F5F305
     Copy CRC 27F5F305
     Copy OK

Track  8
     Filename C:\Documents and Settings\jsegur\Mis documentos\Personal\Rip\John Powell - The Bourne Identity (2002)\08 - John Powell - The Apartment.wav

     Peak level 96.4 %
     Track quality 100.0 %
     Test CRC 0B803E0F
     Copy CRC 0B803E0F
     Copy OK

Track  9
     Filename C:\Documents and Settings\jsegur\Mis documentos\Personal\Rip\John Powell - The Bourne Identity (2002)\09 - John Powell - At The Hairdressers.wav

     Peak level 52.2 %
     Track quality 100.0 %
     Test CRC C676B3C8
     Copy CRC C676B3C8
     Copy OK

Track 10
     Filename C:\Documents and Settings\jsegur\Mis documentos\Personal\Rip\John Powell - The Bourne Identity (2002)\10 - John Powell - Hotel Regina.wav

     Peak level 94.9 %
     Track quality 100.0 %
     Test CRC A86FE891
     Copy CRC A86FE891
     Copy OK

Track 11
     Filename C:\Documents and Settings\jsegur\Mis documentos\Personal\Rip\John Powell - The Bourne Identity (2002)\11 - John Powell - The Investigation.wav

     Peak level 95.0 %
     Track quality 100.0 %
     Test CRC 2EA45D23
     Copy CRC 2EA45D23
     Copy OK

Track 12
     Filename C:\Documents and Settings\jsegur\Mis documentos\Personal\Rip\John Powell - The Bourne Identity (2002)\12 - John Powell - Taxi Ride.wav

     Peak level 92.4 %
     Track quality 100.0 %
     Test CRC B3492C3D
     Copy CRC B3492C3D
     Copy OK

Track 13
     Filename C:\Documents and Settings\jsegur\Mis documentos\Personal\Rip\John Powell - The Bourne Identity (2002)\13 - John Powell - At The Farmhouse.wav

     Peak level 95.1 %
     Track quality 100.0 %
     Test CRC 86FE571E
     Copy CRC 86FE571E
     Copy OK

Track 14
     Filename C:\Documents and Settings\jsegur\Mis documentos\Personal\Rip\John Powell - The Bourne Identity (2002)\14 - John Powell - Jason Phones It In.wav

     Peak level 95.8 %
     Track quality 100.0 %
     Test CRC 1FDFA519
     Copy CRC 1FDFA519
     Copy OK

Track 15
     Filename C:\Documents and Settings\jsegur\Mis documentos\Personal\Rip\John Powell - The Bourne Identity (2002)\15 - John Powell - On Bridge Number 9.wav

     Peak level 93.2 %
     Track quality 100.0 %
     Test CRC 0029D1F0
     Copy CRC 0029D1F0
     Copy OK

Track 16
     Filename C:\Documents and Settings\jsegur\Mis documentos\Personal\Rip\John Powell - The Bourne Identity (2002)\16 - John Powell - Jason's Theme.wav

     Peak level 91.8 %
     Track quality 100.0 %
     Test CRC 52D8FC81
     Copy CRC 52D8FC81
     Copy OK

Track 17
     Filename C:\Documents and Settings\jsegur\Mis documentos\Personal\Rip\John Powell - The Bourne Identity (2002)\17 - John Powell - Mood Build.wav

     Peak level 92.0 %
     Track quality 100.0 %
     Test CRC 5141C265
     Copy CRC 5141C265
     Copy OK

Track 18
     Filename C:\Documents and Settings\jsegur\Mis documentos\Personal\Rip\John Powell - The Bourne Identity (2002)\18 - John Powell - The Bourne Identity.wav

     Peak level 92.8 %
     Track quality 100.0 %
     Test CRC 9A079692
     Copy CRC 9A079692
     Copy OK

Track 19
     Filename C:\Documents and Settings\jsegur\Mis documentos\Personal\Rip\John Powell - The Bourne Identity (2002)\19 - John Powell - Drum And Bass Remix.wav

     Peak level 95.2 %
     Track quality 100.0 %
     Test CRC DCF456C0
     Copy CRC DCF456C0
     Copy OK

No errors occured

End of status report

Код:

REM GENRE Soundtrack
REM DATE 2002
REM DISCID FD0CE313
REM COMMENT "ExactAudioCopy v0.95b3"
PERFORMER "John Powell"
TITLE "The Bourne Identity"
FILE "01 - John Powell - Main Titles.wav" WAVE
  TRACK 01 AUDIO
    TITLE "Main Titles"
    PERFORMER "John Powell"
    INDEX 01 00:00:00
FILE "02 - John Powell - Bourne Gets Well.wav" WAVE
  TRACK 02 AUDIO
    TITLE "Bourne Gets Well"
    PERFORMER "John Powell"
    INDEX 01 00:00:00
FILE "03 - John Powell - Treadstone Assassins.wav" WAVE
  TRACK 03 AUDIO
    TITLE "Treadstone Assassins"
    PERFORMER "John Powell"
    INDEX 01 00:00:00
FILE "04 - John Powell - At The Bank.wav" WAVE
  TRACK 04 AUDIO
    TITLE "At The Bank"
    PERFORMER "John Powell"
    INDEX 01 00:00:00
FILE "05 - John Powell - Bourne On Land.wav" WAVE
  TRACK 05 AUDIO
    TITLE "Bourne On Land"
    PERFORMER "John Powell"
    INDEX 01 00:00:00
FILE "06 - John Powell - Escape From Embassy.wav" WAVE
  TRACK 06 AUDIO
    TITLE "Escape From Embassy"
    PERFORMER "John Powell"
    INDEX 01 00:00:00
FILE "07 - John Powell - The Drive To Paris.wav" WAVE
  TRACK 07 AUDIO
    TITLE "The Drive To Paris"
    PERFORMER "John Powell"
    INDEX 01 00:00:00
FILE "08 - John Powell - The Apartment.wav" WAVE
  TRACK 08 AUDIO
    TITLE "The Apartment"
    PERFORMER "John Powell"
    INDEX 01 00:00:00
FILE "09 - John Powell - At The Hairdressers.wav" WAVE
  TRACK 09 AUDIO
    TITLE "At The Hairdressers"
    PERFORMER "John Powell"
    INDEX 01 00:00:00
FILE "10 - John Powell - Hotel Regina.wav" WAVE
  TRACK 10 AUDIO
    TITLE "Hotel Regina"
    PERFORMER "John Powell"
    INDEX 01 00:00:00
FILE "11 - John Powell - The Investigation.wav" WAVE
  TRACK 11 AUDIO
    TITLE "The Investigation"
    PERFORMER "John Powell"
    INDEX 01 00:00:00
FILE "12 - John Powell - Taxi Ride.wav" WAVE
  TRACK 12 AUDIO
    TITLE "Taxi Ride"
    PERFORMER "John Powell"
    INDEX 01 00:00:00
FILE "13 - John Powell - At The Farmhouse.wav" WAVE
  TRACK 13 AUDIO
    TITLE "At The Farmhouse"
    PERFORMER "John Powell"
    INDEX 01 00:00:00
FILE "14 - John Powell - Jason Phones It In.wav" WAVE
  TRACK 14 AUDIO
    TITLE "Jason Phones It In"
    PERFORMER "John Powell"
    INDEX 01 00:00:00
FILE "15 - John Powell - On Bridge Number 9.wav" WAVE
  TRACK 15 AUDIO
    TITLE "On Bridge Number 9"
    PERFORMER "John Powell"
    INDEX 01 00:00:00
FILE "16 - John Powell - Jason's Theme.wav" WAVE
  TRACK 16 AUDIO
    TITLE "Jason's Theme"
    PERFORMER "John Powell"
    INDEX 01 00:00:00
FILE "17 - John Powell - Mood Build.wav" WAVE
  TRACK 17 AUDIO
    TITLE "Mood Build"
    PERFORMER "John Powell"
    INDEX 01 00:00:00
FILE "18 - John Powell - The Bourne Identity.wav" WAVE
  TRACK 18 AUDIO
    TITLE "The Bourne Identity"
    PERFORMER "John Powell"
    INDEX 01 00:00:00
FILE "19 - John Powell - Drum And Bass Remix.wav" WAVE
  TRACK 19 AUDIO
    TITLE "Drum And Bass Remix"
    PERFORMER "John Powell"
    INDEX 01 00:00:00

Код:

AUDIOCHECKER v2.0 beta (build 457) - by Dester - opdester@freemail.hu
~~~~~~~~~~~~~~~~~~~~~~~~~~~~~~~~~~

Started at: понедельник, 28. 09. 2009. - 22:40.16
19 files found

01 -===- D:\Music\-=LOSSLESS=-\Soundtrack\Bourne\John Powell - The Bourne Identity (2002)\19 - John Powell - Drum And Bass Remix.flac
  Extracted successfully
  Conclusion: this track is CDDA with probability 99%
  Tempfile successfully deleted.

02 -===- D:\Music\-=LOSSLESS=-\Soundtrack\Bourne\John Powell - The Bourne Identity (2002)\01 - John Powell - Main Titles.flac
  Extracted successfully
  Conclusion: this track is CDDA with probability 100%
  Tempfile successfully deleted.

03 -===- D:\Music\-=LOSSLESS=-\Soundtrack\Bourne\John Powell - The Bourne Identity (2002)\02 - John Powell - Bourne Gets Well.flac
  Extracted successfully
  Conclusion: this track is CDDA with probability 100%
  Tempfile successfully deleted.

04 -===- D:\Music\-=LOSSLESS=-\Soundtrack\Bourne\John Powell - The Bourne Identity (2002)\03 - John Powell - Treadstone Assassins.flac
  Extracted successfully
  Conclusion: this track is CDDA with probability 100%
  Tempfile successfully deleted.

05 -===- D:\Music\-=LOSSLESS=-\Soundtrack\Bourne\John Powell - The Bourne Identity (2002)\04 - John Powell - At The Bank.flac
  Extracted successfully
  Conclusion: this track is CDDA with probability 100%
  Tempfile successfully deleted.

06 -===- D:\Music\-=LOSSLESS=-\Soundtrack\Bourne\John Powell - The Bourne Identity (2002)\05 - John Powell - Bourne On Land.flac
  Extracted successfully
  Conclusion: this track is CDDA with probability 99%
  Tempfile successfully deleted.

07 -===- D:\Music\-=LOSSLESS=-\Soundtrack\Bourne\John Powell - The Bourne Identity (2002)\06 - John Powell - Escape From Embassy.flac
  Extracted successfully
  Conclusion: this track is CDDA with probability 100%
  Tempfile successfully deleted.

08 -===- D:\Music\-=LOSSLESS=-\Soundtrack\Bourne\John Powell - The Bourne Identity (2002)\07 - John Powell - The Drive To Paris.flac
  Extracted successfully
  Conclusion: this track is CDDA with probability 100%
  Tempfile successfully deleted.

09 -===- D:\Music\-=LOSSLESS=-\Soundtrack\Bourne\John Powell - The Bourne Identity (2002)\08 - John Powell - The Apartment.flac
  Extracted successfully
  Conclusion: this track is CDDA with probability 100%
  Tempfile successfully deleted.

10 -===- D:\Music\-=LOSSLESS=-\Soundtrack\Bourne\John Powell - The Bourne Identity (2002)\09 - John Powell - At The Hairdressers.flac
  Extracted successfully
  Conclusion: this track is CDDA with probability 100%
  Tempfile successfully deleted.

11 -===- D:\Music\-=LOSSLESS=-\Soundtrack\Bourne\John Powell - The Bourne Identity (2002)\10 - John Powell - Hotel Regina.flac
  Extracted successfully
  Conclusion: this track is CDDA with probability 100%
  Tempfile successfully deleted.

12 -===- D:\Music\-=LOSSLESS=-\Soundtrack\Bourne\John Powell - The Bourne Identity (2002)\11 - John Powell - The Investigation.flac
  Extracted successfully
  Conclusion: this track is CDDA with probability 100%
  Tempfile successfully deleted.

13 -===- D:\Music\-=LOSSLESS=-\Soundtrack\Bourne\John Powell - The Bourne Identity (2002)\12 - John Powell - Taxi Ride.flac
  Extracted successfully
  Conclusion: this track is CDDA with probability 100%
  Tempfile successfully deleted.

14 -===- D:\Music\-=LOSSLESS=-\Soundtrack\Bourne\John Powell - The Bourne Identity (2002)\13 - John Powell - At The Farmhouse.flac
  Extracted successfully
  Conclusion: this track is CDDA with probability 100%
  Tempfile successfully deleted.

15 -===- D:\Music\-=LOSSLESS=-\Soundtrack\Bourne\John Powell - The Bourne Identity (2002)\14 - John Powell - Jason Phones It In.flac
  Extracted successfully
  Conclusion: this track is CDDA with probability 43%
  Tempfile successfully deleted.

16 -===- D:\Music\-=LOSSLESS=-\Soundtrack\Bourne\John Powell - The Bourne Identity (2002)\15 - John Powell - On Bridge Number 9.flac
  Extracted successfully
  Conclusion: this track is CDDA with probability 100%
  Tempfile successfully deleted.

17 -===- D:\Music\-=LOSSLESS=-\Soundtrack\Bourne\John Powell - The Bourne Identity (2002)\16 - John Powell - Jason's Theme.flac
  Extracted successfully
  Conclusion: this track is CDDA with probability 100%
  Tempfile successfully deleted.

18 -===- D:\Music\-=LOSSLESS=-\Soundtrack\Bourne\John Powell - The Bourne Identity (2002)\17 - John Powell - Mood Build.flac
  Extracted successfully
  Conclusion: this track is CDDA with probability 100%
  Tempfile successfully deleted.

19 -===- D:\Music\-=LOSSLESS=-\Soundtrack\Bourne\John Powell - The Bourne Identity (2002)\18 - John Powell - The Bourne Identity.flac
  Extracted successfully
  Conclusion: this track is CDDA with probability 100%
  Tempfile successfully deleted.

Finished at: понедельник, 28. 09. 2009. - 22:46.27 (operation time: 0:06.11)

John Powell and Moby - The Bourne Supremacy / Превосходство Борна
Жанр: Classical, Electronic, Stage & Screen
Происхождение исполнителя: US
Год издания данного носителя: 2004
Страна-производитель носителя: Europe
Тип релиза: tracks+.cue
Аудио кодек: FLAC
Битрейт аудио: lossless
Продолжительность: 00:48:23
Полиграфия: отсутствует
Лейбл: Varèse Sarabande
Каталоговый номер: VSD-6592

Треклист:
1. John Powell - Goa (3:00)
2. John Powell - The Drop (3:42)
3. John Powell - Funeral Pyre (2:21)
4. John Powell - Gathering Data (1:54)
5. John Powell - Nach Deutschland (2:40)
6. John Powell - To The Roof (5:32)
7. John Powell - New Memories (2:48)
8. John Powell - Berlin Foot Chase (5:16)
9. John Powell - Alexander Platz - Abbotts Confesses (3:34)
10. John Powell - Moscow Wind Up (6:55)
11. John Powell - Bim Bam Smash (5:09)
12. John Powell - Atonement (1:35)
13. John Powell - Extreme Ways (3:57)

Код:

Exact Audio Copy V0.99 prebeta 5 from 4. May 2009

EAC extraction logfile from 19. August 2009, 23:03

John Powell / The Bourne Supremacy

Used drive  : Optiarc BD ROM BC-5500S   Adapter: 1  ID: 0

Read mode               : Secure
Utilize accurate stream : Yes
Defeat audio cache      : Yes
Make use of C2 pointers : No

Read offset correction                      : 48
Overread into Lead-In and Lead-Out          : No
Fill up missing offset samples with silence : Yes
Delete leading and trailing silent blocks   : No
Null samples used in CRC calculations       : No
Used interface                              : Installed external ASPI interface
Gap handling                                : Appended to previous track

Used output format              : User Defined Encoder
Selected bitrate                : 768 kBit/s
Quality                         : High
Add ID3 tag                     : No
Command line compressor         : C:\Program Files\Exact Audio Copy\FLAC\FLAC.EXE
Additional command line options : -6 -V -T "ARTIST=%a" -T "TITLE=%t" -T "ALBUM=%g" -T "DATE=%y" -T "TRACKNUMBER=%n" -T "GENRE=%m" -T "COMMENT=%e" %s -o %d

TOC of the extracted CD

     Track |   Start  |  Length  | Start sector | End sector
    ---------------------------------------------------------
        1  |  0:00.00 |  3:00.05 |         0    |    13504   
        2  |  3:00.05 |  3:42.66 |     13505    |    30220   
        3  |  6:42.71 |  2:21.36 |     30221    |    40831   
        4  |  9:04.32 |  1:54.39 |     40832    |    49420   
        5  | 10:58.71 |  2:40.36 |     49421    |    61456   
        6  | 13:39.32 |  5:32.29 |     61457    |    86385   
        7  | 19:11.61 |  2:48.19 |     86386    |    99004   
        8  | 22:00.05 |  5:16.30 |     99005    |   122734   
        9  | 27:16.35 |  3:34.60 |    122735    |   138844   
       10  | 30:51.20 |  6:55.08 |    138845    |   169977   
       11  | 37:46.28 |  5:09.14 |    169978    |   193166   
       12  | 42:55.42 |  1:35.41 |    193167    |   200332   
       13  | 44:31.08 |  3:57.30 |    200333    |   218137   

Track  1

     Filename The Bourne Supremacy\01 - Goa.wav

     Pre-gap length  0:00:02.00

     Peak level 97.7 %
     Track quality 100.0 %
     Test CRC F6D56E7F
     Copy CRC F6D56E7F
     Accurately ripped (confidence 11)  [62E76DF0]
     Copy OK

Track  2

     Filename The Bourne Supremacy\02 - The Drop.wav

     Peak level 97.7 %
     Track quality 100.0 %
     Test CRC 31E15129
     Copy CRC 31E15129
     Accurately ripped (confidence 11)  [8456BF2E]
     Copy OK

Track  3

     Filename The Bourne Supremacy\03 - Funeral Pyre.wav

     Peak level 94.4 %
     Track quality 100.0 %
     Test CRC 26630AAF
     Copy CRC 26630AAF
     Accurately ripped (confidence 11)  [34DB9142]
     Copy OK

Track  4

     Filename The Bourne Supremacy\04 - Gathering Data.wav

     Peak level 94.3 %
     Track quality 100.0 %
     Test CRC A7AD794D
     Copy CRC A7AD794D
     Accurately ripped (confidence 11)  [ACC88878]
     Copy OK

Track  5

     Filename The Bourne Supremacy\05 - Nach Deutschland.wav

     Peak level 97.7 %
     Track quality 100.0 %
     Test CRC F3B66B2C
     Copy CRC F3B66B2C
     Accurately ripped (confidence 11)  [1052C834]
     Copy OK

Track  6

     Filename The Bourne Supremacy\06 - To The Roof.wav

     Peak level 94.4 %
     Track quality 99.9 %
     Test CRC 418B1BB8
     Copy CRC 418B1BB8
     Accurately ripped (confidence 11)  [03DC961E]
     Copy OK

Track  7

     Filename The Bourne Supremacy\07 - New Memories.wav

     Peak level 29.3 %
     Track quality 100.0 %
     Test CRC EFF2E9A9
     Copy CRC EFF2E9A9
     Accurately ripped (confidence 11)  [66A9DFDE]
     Copy OK

Track  8

     Filename The Bourne Supremacy\08 - Berlin Foot Chase.wav

     Peak level 94.3 %
     Track quality 100.0 %
     Test CRC FBBCC3C8
     Copy CRC FBBCC3C8
     Accurately ripped (confidence 11)  [50A2D0C8]
     Copy OK

Track  9

     Filename The Bourne Supremacy\09 - Alexander Platz - Abbotts Confesses.wav

     Peak level 94.4 %
     Track quality 100.0 %
     Test CRC 9C29600E
     Copy CRC 9C29600E
     Accurately ripped (confidence 11)  [6A653F2D]
     Copy OK

Track 10

     Filename The Bourne Supremacy\10 - Moscow Wind Up.wav

     Peak level 94.4 %
     Track quality 100.0 %
     Test CRC 7EDA129B
     Copy CRC 7EDA129B
     Accurately ripped (confidence 11)  [7FC43894]
     Copy OK

Track 11

     Filename The Bourne Supremacy\11 - Bim Bam Smash.wav

     Peak level 97.7 %
     Track quality 100.0 %
     Test CRC C00489BB
     Copy CRC C00489BB
     Accurately ripped (confidence 11)  [11879CB9]
     Copy OK

Track 12

     Filename The Bourne Supremacy\12 - Atonement.wav

     Peak level 57.3 %
     Track quality 100.0 %
     Test CRC 5011CF77
     Copy CRC 5011CF77
     Accurately ripped (confidence 11)  [17481D85]
     Copy OK

Track 13

     Filename The Bourne Supremacy\13 - Extreme Ways.wav

     Pre-gap length  0:00:02.71

     Peak level 61.5 %
     Track quality 100.0 %
     Test CRC 14665153
     Copy CRC 14665153
     Accurately ripped (confidence 13)  [EE77FBA4]
     Copy OK

All tracks accurately ripped

No errors occurred

End of status report

Код:

REM GENRE Soundtrack
REM DATE 2004
REM DISCID A90B5C0D
REM COMMENT "ExactAudioCopy v0.99pb5"
PERFORMER "John Powell"
TITLE "The Bourne Supremacy"
FILE "01 - Goa.wav" WAVE
  TRACK 01 AUDIO
    TITLE "Goa"
    PERFORMER "John Powell"
    INDEX 01 00:00:00
FILE "02 - The Drop.wav" WAVE
  TRACK 02 AUDIO
    TITLE "The Drop"
    PERFORMER "John Powell"
    INDEX 01 00:00:00
FILE "03 - Funeral Pyre.wav" WAVE
  TRACK 03 AUDIO
    TITLE "Funeral Pyre"
    PERFORMER "John Powell"
    INDEX 01 00:00:00
FILE "04 - Gathering Data.wav" WAVE
  TRACK 04 AUDIO
    TITLE "Gathering Data"
    PERFORMER "John Powell"
    INDEX 01 00:00:00
FILE "05 - Nach Deutschland.wav" WAVE
  TRACK 05 AUDIO
    TITLE "Nach Deutschland"
    PERFORMER "John Powell"
    INDEX 01 00:00:00
FILE "06 - To The Roof.wav" WAVE
  TRACK 06 AUDIO
    TITLE "To The Roof"
    PERFORMER "John Powell"
    INDEX 01 00:00:00
FILE "07 - New Memories.wav" WAVE
  TRACK 07 AUDIO
    TITLE "New Memories"
    PERFORMER "John Powell"
    INDEX 01 00:00:00
FILE "08 - Berlin Foot Chase.wav" WAVE
  TRACK 08 AUDIO
    TITLE "Berlin Foot Chase"
    PERFORMER "John Powell"
    INDEX 01 00:00:00
FILE "09 - Alexander Platz - Abbotts Confesses.wav" WAVE
  TRACK 09 AUDIO
    TITLE "Alexander Platz - Abbotts Confesses"
    PERFORMER "John Powell"
    INDEX 01 00:00:00
FILE "10 - Moscow Wind Up.wav" WAVE
  TRACK 10 AUDIO
    TITLE "Moscow Wind Up"
    PERFORMER "John Powell"
    INDEX 01 00:00:00
FILE "11 - Bim Bam Smash.wav" WAVE
  TRACK 11 AUDIO
    TITLE "Bim Bam Smash"
    PERFORMER "John Powell"
    INDEX 01 00:00:00
FILE "12 - Atonement.wav" WAVE
  TRACK 12 AUDIO
    TITLE "Atonement"
    PERFORMER "John Powell"
    INDEX 01 00:00:00
  TRACK 13 AUDIO
    TITLE "Extreme Ways"
    PERFORMER "John Powell"
    INDEX 00 01:32:45
FILE "13 - Extreme Ways.wav" WAVE
    INDEX 01 00:00:00

Код:

AUDIOCHECKER v2.0 beta (build 457) - by Dester - opdester@freemail.hu
~~~~~~~~~~~~~~~~~~~~~~~~~~~~~~~~~~

Started at: понедельник, 28. 09. 2009. - 22:47.18
13 files found

01 -===- D:\Music\-=LOSSLESS=-\Soundtrack\Bourne\John Powell - The Bourne Supremacy (2004)\13 - Extreme Ways.flac
  Extracted successfully
  Conclusion: this track is CDDA with probability 100%
  Tempfile successfully deleted.

02 -===- D:\Music\-=LOSSLESS=-\Soundtrack\Bourne\John Powell - The Bourne Supremacy (2004)\01 - Goa.flac
  Extracted successfully
  Conclusion: this track is CDDA with probability 100%
  Tempfile successfully deleted.

03 -===- D:\Music\-=LOSSLESS=-\Soundtrack\Bourne\John Powell - The Bourne Supremacy (2004)\02 - The Drop.flac
  Extracted successfully
  Conclusion: this track is CDDA with probability 100%
  Tempfile successfully deleted.

04 -===- D:\Music\-=LOSSLESS=-\Soundtrack\Bourne\John Powell - The Bourne Supremacy (2004)\03 - Funeral Pyre.flac
  Extracted successfully
  Conclusion: this track is CDDA with probability 100%
  Tempfile successfully deleted.

05 -===- D:\Music\-=LOSSLESS=-\Soundtrack\Bourne\John Powell - The Bourne Supremacy (2004)\04 - Gathering Data.flac
  Extracted successfully
  Conclusion: this track is CDDA with probability 100%
  Tempfile successfully deleted.

06 -===- D:\Music\-=LOSSLESS=-\Soundtrack\Bourne\John Powell - The Bourne Supremacy (2004)\05 - Nach Deutschland.flac
  Extracted successfully
  Conclusion: this track is CDDA with probability 100%
  Tempfile successfully deleted.

07 -===- D:\Music\-=LOSSLESS=-\Soundtrack\Bourne\John Powell - The Bourne Supremacy (2004)\06 - To The Roof.flac
  Extracted successfully
  Conclusion: this track is CDDA with probability 99%
  Tempfile successfully deleted.

08 -===- D:\Music\-=LOSSLESS=-\Soundtrack\Bourne\John Powell - The Bourne Supremacy (2004)\07 - New Memories.flac
  Extracted successfully
  Conclusion: this track is CDDA with probability 100%
  Tempfile successfully deleted.

09 -===- D:\Music\-=LOSSLESS=-\Soundtrack\Bourne\John Powell - The Bourne Supremacy (2004)\08 - Berlin Foot Chase.flac
  Extracted successfully
  Conclusion: this track is CDDA with probability 100%
  Tempfile successfully deleted.

10 -===- D:\Music\-=LOSSLESS=-\Soundtrack\Bourne\John Powell - The Bourne Supremacy (2004)\09 - Alexander Platz - Abbotts Confesses.flac
  Extracted successfully
  Conclusion: this track is CDDA with probability 100%
  Tempfile successfully deleted.

11 -===- D:\Music\-=LOSSLESS=-\Soundtrack\Bourne\John Powell - The Bourne Supremacy (2004)\10 - Moscow Wind Up.flac
  Extracted successfully
  Conclusion: this track is CDDA with probability 100%
  Tempfile successfully deleted.

12 -===- D:\Music\-=LOSSLESS=-\Soundtrack\Bourne\John Powell - The Bourne Supremacy (2004)\11 - Bim Bam Smash.flac
  Extracted successfully
  Conclusion: this track is CDDA with probability 100%
  Tempfile successfully deleted.

13 -===- D:\Music\-=LOSSLESS=-\Soundtrack\Bourne\John Powell - The Bourne Supremacy (2004)\12 - Atonement.flac
  Extracted successfully
  Conclusion: this track is CDDA with probability 100%
  Tempfile successfully deleted.

Finished at: понедельник, 28. 09. 2009. - 22:52.53 (operation time: 0:05.34)

John Powell and Moby - The Bourne Ultimatum / Ультиматум Борна
Жанр: Classical, Stage & Screen
Происхождение исполнителя: USA
Год издания данного носителя: 2007
Страна-производитель носителя: USA
Тип релиза: tracks+.cue
Аудио кодек: FLAC
Битрейт аудио: lossless
Продолжительность: 00:54:59
Полиграфия: отсутствует
Лейбл: Decca
Каталоговый номер: 174 1038

Треклист:
1. John Powell - Six Weeks Ago (4:31)
2. John Powell - Tangiers (7:40)
3. John Powell - Thinking Of Marie (3:51)
4. John Powell - Assets And Targets (7:18)
5. John Powell - Faces Without Names (3:31)
6. John Powell - Waterloo (10:38)
7. John Powell - Coming Home (3:19)
8. John Powell - Man Verses Man (5:45)
9. John Powell - Jason Is Reborn (4:04)
10. John Powell - Extreme Ways (Bourne's Ultimatum) / Moby (4:22)

Код:

EAC extraction logfile from 25. August 2007, 13:58 for CD
John Powell / The Bourne Ultimatum

Used drive  : PIONEER DVD-RW  DVR-107D   Adapter: 2  ID: 0
Read mode   : Secure with NO C2, accurate stream, disable cache
Read offset correction : 48
Overread into Lead-In and Lead-Out : No

Used output format : c:\Program Files\FLAC\flac.exe   (User Defined Encoder)
                     128 kBit/s
                     Additional command line options : -V -8 -T "artist=%a" -T "title=%t" -T "album=%g" -T "date=%y" -T "tracknumber=%n" -T "genre=%m" %s

Other options      :
    Fill up missing offset samples with silence : Yes
    Delete leading and trailing silent blocks : No
    Installed external ASPI interface

Track  1
     Filename c:\Flac\John Powell - The Bourne Ultimatum\01 - Six Weeks Ago.wav

     Pre-gap length  0:00:02.00

     Peak level 95.4 %
     Track quality 100.0 %
     Test CRC 714B6AB1
     Copy CRC 714B6AB1
     Copy OK

Track  2
     Filename c:\Flac\John Powell - The Bourne Ultimatum\02 - Tangiers.wav

     Peak level 90.1 %
     Track quality 99.9 %
     Test CRC 34C07697
     Copy CRC 34C07697
     Copy OK

Track  3
     Filename c:\Flac\John Powell - The Bourne Ultimatum\03 - Thinking Of Marie.wav

     Peak level 54.3 %
     Track quality 100.0 %
     Test CRC EFC37A58
     Copy CRC EFC37A58
     Copy OK

Track  4
     Filename c:\Flac\John Powell - The Bourne Ultimatum\04 - Assets And Targets.wav

     Peak level 90.1 %
     Track quality 100.0 %
     Test CRC B1608D5C
     Copy CRC B1608D5C
     Copy OK

Track  5
     Filename c:\Flac\John Powell - The Bourne Ultimatum\05 - Faces Without Names.wav

     Peak level 80.3 %
     Track quality 100.0 %
     Test CRC 0A58D936
     Copy CRC 0A58D936
     Copy OK

Track  6
     Filename c:\Flac\John Powell - The Bourne Ultimatum\06 - Waterloo.wav

     Peak level 95.4 %
     Track quality 100.0 %
     Test CRC 8C6C8472
     Copy CRC 8C6C8472
     Copy OK

Track  7
     Filename c:\Flac\John Powell - The Bourne Ultimatum\07 - Coming Home.wav

     Peak level 90.1 %
     Track quality 100.0 %
     Test CRC 36C766D5
     Copy CRC 36C766D5
     Copy OK

Track  8
     Filename c:\Flac\John Powell - The Bourne Ultimatum\08 - Man Verses Man.wav

     Peak level 90.1 %
     Track quality 100.0 %
     Test CRC 7EC2F0D1
     Copy CRC 7EC2F0D1
     Copy OK

Track  9
     Filename c:\Flac\John Powell - The Bourne Ultimatum\09 - Jason Is Reborn.wav

     Peak level 90.1 %
     Track quality 100.0 %
     Test CRC E7B62691
     Copy CRC E7B62691
     Copy OK

Track 10
     Filename c:\Flac\John Powell - The Bourne Ultimatum\10 - Extreme Ways (Bourne's Ultimatum) , Moby.wav

     Peak level 70.7 %
     Track quality 99.9 %
     Test CRC 02AAE2DE
     Copy CRC 02AAE2DE
     Copy OK

No errors occured

End of status report

Код:

REM GENRE Soundtrack
REM DATE 2007
REM DISCID 770CE50A
REM COMMENT "ExactAudioCopy v0.95b4"
PERFORMER "John Powell"
TITLE "The Bourne Ultimatum"
FILE "01 - Six Weeks Ago.wav" WAVE
  TRACK 01 AUDIO
    TITLE "Six Weeks Ago"
    PERFORMER "John Powell"
    INDEX 01 00:00:00
FILE "02 - Tangiers.wav" WAVE
  TRACK 02 AUDIO
    TITLE "Tangiers"
    PERFORMER "John Powell"
    INDEX 01 00:00:00
FILE "03 - Thinking Of Marie.wav" WAVE
  TRACK 03 AUDIO
    TITLE "Thinking Of Marie"
    PERFORMER "John Powell"
    INDEX 01 00:00:00
FILE "04 - Assets And Targets.wav" WAVE
  TRACK 04 AUDIO
    TITLE "Assets And Targets"
    PERFORMER "John Powell"
    INDEX 01 00:00:00
FILE "05 - Faces Without Names.wav" WAVE
  TRACK 05 AUDIO
    TITLE "Faces Without Names"
    PERFORMER "John Powell"
    INDEX 01 00:00:00
FILE "06 - Waterloo.wav" WAVE
  TRACK 06 AUDIO
    TITLE "Waterloo"
    PERFORMER "John Powell"
    INDEX 01 00:00:00
FILE "07 - Coming Home.wav" WAVE
  TRACK 07 AUDIO
    TITLE "Coming Home"
    PERFORMER "John Powell"
    INDEX 01 00:00:00
FILE "08 - Man Verses Man.wav" WAVE
  TRACK 08 AUDIO
    TITLE "Man Verses Man"
    PERFORMER "John Powell"
    INDEX 01 00:00:00
FILE "09 - Jason Is Reborn.wav" WAVE
  TRACK 09 AUDIO
    TITLE "Jason Is Reborn"
    PERFORMER "John Powell"
    INDEX 01 00:00:00
FILE "10 - Extreme Ways (Bourne's Ultimatum) , Moby.wav" WAVE
  TRACK 10 AUDIO
    TITLE "Extreme Ways (Bourne's Ultimatum) / Moby"
    PERFORMER "John Powell"
    INDEX 01 00:00:00

Код:

AUDIOCHECKER v2.0 beta (build 457) - by Dester - opdester@freemail.hu
~~~~~~~~~~~~~~~~~~~~~~~~~~~~~~~~~~

Started at: понедельник, 28. 09. 2009. - 22:57.24
10 files found

01 -===- D:\Music\-=LOSSLESS=-\Soundtrack\Bourne\John Powell - The Bourne Ultimatum (2007)\10 - Extreme Ways (Bourne's Ultimatum) , Moby.flac
  Extracted successfully
  Conclusion: this track is CDDA with probability 100%
  Tempfile successfully deleted.

02 -===- D:\Music\-=LOSSLESS=-\Soundtrack\Bourne\John Powell - The Bourne Ultimatum (2007)\01 - Six Weeks Ago.flac
  Extracted successfully
  Conclusion: this track is CDDA with probability 100%
  Tempfile successfully deleted.

03 -===- D:\Music\-=LOSSLESS=-\Soundtrack\Bourne\John Powell - The Bourne Ultimatum (2007)\02 - Tangiers.flac
  Extracted successfully
  Conclusion: this track is CDDA with probability 100%
  Tempfile successfully deleted.

04 -===- D:\Music\-=LOSSLESS=-\Soundtrack\Bourne\John Powell - The Bourne Ultimatum (2007)\03 - Thinking Of Marie.flac
  Extracted successfully
  Conclusion: this track is CDDA with probability 100%
  Tempfile successfully deleted.

05 -===- D:\Music\-=LOSSLESS=-\Soundtrack\Bourne\John Powell - The Bourne Ultimatum (2007)\04 - Assets And Targets.flac
  Extracted successfully
  Conclusion: this track is CDDA with probability 100%
  Tempfile successfully deleted.

06 -===- D:\Music\-=LOSSLESS=-\Soundtrack\Bourne\John Powell - The Bourne Ultimatum (2007)\05 - Faces Without Names.flac
  Extracted successfully
  Conclusion: this track is CDDA with probability 100%
  Tempfile successfully deleted.

07 -===- D:\Music\-=LOSSLESS=-\Soundtrack\Bourne\John Powell - The Bourne Ultimatum (2007)\06 - Waterloo.flac
  Extracted successfully
  Conclusion: this track is CDDA with probability 100%
  Tempfile successfully deleted.

08 -===- D:\Music\-=LOSSLESS=-\Soundtrack\Bourne\John Powell - The Bourne Ultimatum (2007)\07 - Coming Home.flac
  Extracted successfully
  Conclusion: this track is CDDA with probability 100%
  Tempfile successfully deleted.

09 -===- D:\Music\-=LOSSLESS=-\Soundtrack\Bourne\John Powell - The Bourne Ultimatum (2007)\08 - Man Verses Man.flac
  Extracted successfully
  Conclusion: this track is CDDA with probability 100%
  Tempfile successfully deleted.

10 -===- D:\Music\-=LOSSLESS=-\Soundtrack\Bourne\John Powell - The Bourne Ultimatum (2007)\09 - Jason Is Reborn.flac
  Extracted successfully
  Conclusion: this track is CDDA with probability 100%
  Tempfile successfully deleted.

Finished at: понедельник, 28. 09. 2009. - 23:04.04 (operation time: 0:06.39)


От себя:
Просто феноменальные треки. Приятного прослушивания! Улыбаюсь
info [Профиль]  [ЛС] 

papay78

Пол: Пол:Муж

Стаж: 7 лет 4 месяца

Сообщений: 9

Россия
Рейтинг

post 13-Мар-2010 22:51 (спустя 5 месяцев 14 дней) [-]0[+]

[Цитировать] 

СпасиБО ) Тока сейчас немогу скачивать 8-((
Если нетрудно, Встаньте на раздачу в Понедельник А ?? :-)
info [Профиль]  [ЛС] 

trak1

Предупреждений: 1

Рейтинг

post 01-Май-2010 08:14 (спустя 1 месяц 17 дней) [-]0[+]

[Цитировать] 

спасибо за релиз
 
Показать сообщения:    
Ответить на тему

Текущее время: 09-Дек 00:14

Часовой пояс: GMT + 4



Вы не можете начинать темы
Вы не можете отвечать на сообщения
Вы не можете редактировать свои сообщения
Вы не можете удалять свои сообщения
Вы не можете голосовать в опросах
Вы не можете прикреплять файлы к сообщениям
Вы не можете скачивать файлы