Ошибка

Ангелы Смерти / Burst Angel [TV][1-24 из 24][2004][приключения, комедия, меха, этти][BDRip][Любительский(JAP+SUB)]

Ответить на тему
 
Автор Сообщение

barbosa

Пол: Пол:Муж

Стаж: 7 лет 3 месяца

Сообщений: 122

Россия
Рейтинг

post 21-Фев-2013 16:41 0[+]

[Цитировать] 

pic="http://i53.fastpic.ru/big/2013/0220/39/991937fdf3eec150271861ecc74ed339.png"
Ангелы Смерти
Burst Angel | Bakuretsu Tenshi 爆裂天使

Выпуск: c 07.04.2004 по 22.09.2004
Продолжительность: (24 эп.), 25 мин.
Жанр: приключения, комедия, меха, этти
Тип: TV
Страна: Япония
Студия:
Режиссер: Охата Койти
Сценарий: Симо Фумихико
Озвучено:
Mega-Anime Профессиональная многоголосая (закадровая)
Субтитры:
Mega-Anime - ass, отдельно (полные)
Информация о видео:
Качество: BDRip | Формат видео: MKV | Автор рипа: [Dez]
Видео: AVC (h,264), 1024x586, 3500 Kbps, 23.976 fps
Аудио(RUS): AC3, 48.0 kHz stereo, 5.1 ch, 450 Kbps
Аудио(JAP): AC3, 48.0 kHz stereo, 5.1 ch, 640 Kbps
Описание:
Будущее, год 20XX. Токио все больше погружается в хаос преступности и жестокости. Чтобы хоть как-то сохранить порядок, правительство разрешает обычным гражданам носить оружие. Но даже специально созданное полицейское спецподразделение РАПТ не в силах защитить людей, живущих в постоянном страхе. Кто может спасти раздираемый насилием, обреченный город? Только ангелы. И тут они являются - Ангелы смерти, четыре юных и прекрасных девушки: Джо, Мег, Сей, Эмми. Они - единственная надежда, которая есть у жителей города…

Средний балл: 7.2 из 10
Место в рейтинге: 1902 из 2282
Проголосовало: 509 чел.

E:\Anime\DVDRip\Burst Angel\Bakuretsu Tenshi TV (BDRip)\Bakuretsu Tenshi - 03 [BDRip@Dez 1024x586 x264 AC3].mkv
General
Unique ID : 185936263666887921987329672033947181479 (0x8BE2059450959D719D36B3104EF961A7)
Complete name : E:\Anime\DVDRip\Burst Angel\Bakuretsu Tenshi TV (BDRip)\Bakuretsu Tenshi - 03 [BDRip@Dez 1024x586 x264 AC3].mkv
Format : Matroska
Format version : Version 2
File size : 697 MiB
Duration : 23mn 29s
Overall bit rate : 4 147 Kbps
Movie name : Bakuretsu Tenshi - 03 [Dez]
Encoded date : UTC 2010-11-25 11:20:59
Writing application : mkvmerge v2.8.0 ('The Tree') built on May 9 2009 18:02:06
Writing library : libebml v0.7.7 + libmatroska v0.8.1
Video #1
ID : 1
Format : AVC
Format/Info : Advanced Video Codec
Format profile : High@L4.1
Format settings, CABAC : Yes
Format settings, ReFrames : 8 frames
Codec ID : V_MPEG4/ISO/AVC
Duration : 23mn 29s
Bit rate : 3 425 Kbps
Width : 1 024 pixels
Height : 586 pixels
Display aspect ratio : 16:9
Frame rate : 23.976 fps
Color space : YUV
Chroma subsampling : 4:2:0
Bit depth : 8 bits
Scan type : Progressive
Bits/(Pixel*Frame) : 0.238
Stream size : 575 MiB (83%)
Title : BDRip, encoded by Dez
Writing library : BDRip,encoded-by-Dez
Language : English
Default : Yes
Forced : No
Audio #2
ID : 2
Format : AC-3
Format/Info : Audio Coding 3
Mode extension : CM (complete main)
Format settings, Endianness : Big
Codec ID : A_AC3
Duration : 23mn 29s
Bit rate mode : Constant
Bit rate : 640 Kbps
Channel(s) : 6 channels
Channel positions : Front: L C R, Side: L R, LFE
Sampling rate : 48.0 KHz
Bit depth : 16 bits
Compression mode : Lossy
Stream size : 108 MiB (15%)
Title : 5.1
Language : Japanese
Default : Yes
Forced : No

Эта серия состоит из:

#1 Ангелы Смерти [ТВ] - ТВ (24 эп. + 6 спэшлов), оригинальный сериал, 2004
#2 Ангелы Смерти OVA - OVA (1 эп. + 3 спэшла), дополнение, 2007
info [Профиль]  [ЛС] 

Nekros73

Пол: Пол:Муж

Стаж: 6 лет 4 месяца

Сообщений: 169

Россия
Рейтинг

post 21-Фев-2013 17:44 (спустя 1 час 2 минуты) [-]0[+]

[Цитировать] 

офигенный мульт

_________________
info [Профиль]  [ЛС] 

Benzovorona

Пол: Пол:Жен

Стаж: 6 лет 8 месяцев

Сообщений: 161

Россия
Рейтинг

post 21-Фев-2013 18:30 (спустя 46 минут) [-]1[+]

[Цитировать] 

Да это же бубльгум!
info [Профиль]  [ЛС] 

BlackHorror

Пол: Пол:Муж

Стаж: 3 года 9 месяцев

Сообщений: 654

Рейтинг

post 21-Фев-2013 19:55 (спустя 1 час 25 минут) [-]0[+]

[Цитировать] 

Обложка чем-то на Евангелион смахивает =)

_________________
info [Профиль]  [ЛС] 

Kirill

Пол: Пол:Муж

Стаж: 6 лет 2 месяца

Сообщений: 197

Россия
Рейтинг

post 21-Фев-2013 20:24 (спустя 29 минут) [-]0[+]

[Цитировать] 

Народ! Подскажите годную меху (без этти и вообще без эротики)
Евангелион и Код Гиасс смотрел. Гандам- еле-еле смотрю
info [Профиль]  [ЛС] 

ZashikiWarashi

Пол: Пол:Муж

Стаж: 4 года 1 месяц

Сообщений: 461

Предупреждений: 1

Россия
Рейтинг

post 21-Фев-2013 21:03 (спустя 38 минут) [-]0[+]

[Цитировать] 

Macross frontier.
info [Профиль]  [ЛС] 

FearStranger

Пол: Пол:Муж

Стаж: 6 лет 11 месяцев

Сообщений: 5

Россия
Рейтинг

post 21-Фев-2013 21:26 (спустя 22 минуты) [-]0[+]

[Цитировать] 

tengen toppa gurren lagann

_________________
МАГМА ТЕЧЕТ В НАШИХ ВЕНАХ РАСКАЛЯЯ СЕРДЦА!!!!!
info [Профиль]  [ЛС] 

DeusNeko

Пол: Пол:Муж

Стаж: 7 лет 1 месяц

Сообщений: 1381

Предупреждений: 1

Россия
Рейтинг

post 21-Фев-2013 22:45 (спустя 1 час 19 минут) [-]1[+]

[Цитировать] 

Очень слабый сериал. Невразумительный сюжет, скучные персонажи. В своё время со скрипом осилил. Сойдет разве что для любителей поглазеть на девушек в тоненьких тряпочках вместо одежды. Никому бы не стал рекомендовать эту вещь.

Kirill, попробоуй Eureka 7.

_________________
Matrix Mini-I Pro -> Questyle CMA800R -> Sennheiser HD 280/PSB M4U 1/Beyerdynamic DT 770 Pro/Beyerdynamic T90/HiFiMAN HE-400
info [Профиль]  [ЛС] 

Mr Spock

Пол: Пол:Муж

Стаж: 5 лет 5 месяцев

Сообщений: 144

Антарктида
Рейтинг

post 22-Фев-2013 00:55 (спустя 2 часа 9 минут) [-]1[+]

[Цитировать] 

Kirill, Full Metal Panic, но там еще школа ><

_________________
info [Профиль]  [ЛС] 

Kirill

Пол: Пол:Муж

Стаж: 6 лет 2 месяца

Сообщений: 197

Россия
Рейтинг

post 22-Фев-2013 17:02 (спустя 16 часов) [-]0[+]

[Цитировать] 

DeusNeko задумка классная, но "не пошло что-то"
Mr Spock Стальная тревога засмотрена до дыр несмотря на не оч удавшийся 2-й сезон (fumoffu не рассматриваем)
info [Профиль]  [ЛС] 
Показать сообщения:    
Ответить на тему

Текущее время: 03-Дек 19:46

Часовой пояс: GMT + 4



Вы не можете начинать темы
Вы не можете отвечать на сообщения
Вы не можете редактировать свои сообщения
Вы не можете удалять свои сообщения
Вы не можете голосовать в опросах
Вы не можете прикреплять файлы к сообщениям
Вы не можете скачивать файлы