Ошибка

Дополнительные занятия до утра! / Asa Made Jugyou Chu! [OVA][1 из 1][2012][комедия, этти][BDRip][720p][Любительский (JAP+SUB)]

Ответить на тему
 
Автор Сообщение

barbosa

Пол: Пол:Муж

Стаж: 7 лет 3 месяца

Сообщений: 122

Россия
Рейтинг

post 20-Фев-2013 13:21 3[+]

[Цитировать] 

pic="http://www.world-art.ru/animation/img/2000/1070/2.jpg"
Дополнительные занятия до утра!
Asa made Jugyou Chu! | 朝まで授業 Chu!

Премьера: 23.06.2012
Продолжительность: (1 эп.), 30 мин.
Жанр: комедия, этти
Тип: OVA
Страна: Япония
Студия:
Режиссер: Канадзава Хиромицу
Автор оригинала: Ота Акиёси
Снято по манге: Asa made Jugyou Chu!
Озвучено:
одноголосая (жен.) от fynnley (@Lucky Clover)
Субтитры:
fynnley and DJATOM (@Lucky Clover) - ass, в составе контейнера (полные + надписи)
Информация о видео:
Качество: BDRip | Формат видео: MKV | Автор рипа: Winter
Видео: x264 (Hi10p), 1280x720, 2520 Kbps, 23.976 fps 16:9
Аудио(RUS): Vorbis, 48000Hz, 350 Kbps, 2ch
Аудио(JAP): Vorbis, 48000Hz, 256 Kbps, 2ch
Описание:
Сюжет закручивается вокруг молодого безобидного парнишки по имени Юки Кагами, который переводится в академию своей мечты, где его тот час по ошибке заселяют в женское общежитие. Встречая риск быть отчисленным, Юки ничего не остается, кроме как переодеваться в девочку, пока он на территории общежития. В довершении ко всему в его комнату заселяют Аяну Какинозаки (Молодую симпатичную учительницу без комплексов, которая по какой-то причине считает, что наш тихоня не совладает с собой, если его периодически не поощрять). Чуть позже о парне узнают еще несколько девчонок из общежития и становится еще веселее.

© DamnU2, World Art

E:\Anime\DVDRip\Asa made Jugyou Chu! [BDrip720p]\[RG Lucky Clover] Asa made Jugyou Chu! [Winter BDrip 1280x720 x264 Vorbis].mkv
General
Unique ID : 181751317378845626844419609551500902135 (0x88BC07CC0A99451993CBF0D273827EF7)
Complete name : E:\Anime\DVDRip\Asa made Jugyou Chu! [BDrip720p]\[RG Lucky Clover] Asa made Jugyou Chu! [Winter BDrip 1280x720 x264 Vorbis].mkv
Format : Matroska
Format version : Version 2
File size : 660 MiB
Duration : 29mn 47s
Overall bit rate mode : Variable
Overall bit rate : 3 099 Kbps
Encoded date : UTC 2012-07-07 22:57:35
Writing application : mkvmerge v5.2.1 ('A Far Off Place') built on Jan 2 2012 23:21:10
Writing library : libebml v1.2.3 + libmatroska v1.3.0
Attachment : Yes / Yes / Yes / Yes / Yes / Yes / Yes / Yes / Yes / Yes
Video #1
ID : 1
Format : AVC
Format/Info : Advanced Video Codec
Format profile : High 10@L4.1
Format settings, CABAC : Yes
Format settings, ReFrames : 9 frames
Codec ID : V_MPEG4/ISO/AVC
Duration : 29mn 47s
Bit rate : 2 525 Kbps
Width : 1 280 pixels
Height : 720 pixels
Display aspect ratio : 16:9
Frame rate : 23.976 fps
Color space : YUV
Chroma subsampling : 4:2:0
Bit depth : 10 bits
Scan type : Progressive
Bits/(Pixel*Frame) : 0.114
Stream size : 538 MiB (81%)
Title : Winter
Writing library : x264 core 125 r2200 999b753
Encoding settings : cabac=1 / ref=9 / deblock=1:-2:-2 / analyse=0x3:0x133 / me=umh / subme=9 / psy=1 / psy_rd=0.90:0.00 / mixed_ref=1 / me_range=24 / chroma_me=1 / trellis=2 / 8x8dct=1 / cqm=0 / deadzone=21,11 / fast_pskip=1 / chroma_qp_offset=-2 / threads=6 / lookahead_threads=1 / sliced_threads=0 / nr=0 / decimate=0 / interlaced=0 / bluray_compat=0 / constrained_intra=0 / bframes=8 / b_pyramid=2 / b_adapt=2 / b_bias=0 / direct=1 / weightb=1 / open_gop=0 / weightp=2 / keyint=250 / keyint_min=23 / scenecut=40 / intra_refresh=0 / rc=crf / mbtree=0 / crf=15.8 / qcomp=0.70 / qpmin=9 / qpmax=42 / qpstep=4 / ip_ratio=1.40 / pb_ratio=1.30 / aq=1:0.90
Language : Japanese
Default : Yes
Forced : No
Audio #2
ID : 2
Format : Vorbis
Format settings, Floor : 1
Codec ID : A_VORBIS
Duration : 29mn 47s
Bit rate mode : Variable
Bit rate : 256 Kbps
Channel(s) : 2 channels
Sampling rate : 48.0 KHz
Compression mode : Lossy
Stream size : 54.5 MiB (8%)
Title : 2.0 (Original)
Writing library : libVorbis (Schaufenugget) (20101101 (Schaufenugget))
Language : Japanese
Default : No
Forced : No
Audio #3
ID : 3
Format : Vorbis
Format settings, Floor : 1
Codec ID : A_VORBIS
Duration : 29mn 47s
Bit rate mode : Variable
Bit rate : 256 Kbps
Channel(s) : 2 channels
Sampling rate : 48.0 KHz
Compression mode : Lossy
Stream size : 54.5 MiB (8%)
Title : fynnley @RG Lucky Clover
Writing library : libVorbis 1.0 (UTC 2002-07-17)
Language : Russian
Default : Yes
Forced : No
Text #4
ID : 4
Format : ASS
Codec ID : S_TEXT/ASS
Codec ID/Info : Advanced Sub Station Alpha
Compression mode : Lossless
Title : fynnley & DJATOM (Полные субтитры)
Language : Russian
Default : No
Forced : No
Text #5
ID : 5
Format : ASS
Codec ID : S_TEXT/ASS
Codec ID/Info : Advanced Sub Station Alpha
Compression mode : Lossless
Title : fynnley & DJATOM (Только надписи)
Language : Russian
Default : Yes
Forced : No

Наличие Голых Титек и Круглых Попок

info [Профиль]  [ЛС] 

barbosa

Пол: Пол:Муж

Стаж: 7 лет 3 месяца

Сообщений: 122

Россия
Рейтинг

post 20-Фев-2013 13:27 (спустя 6 минут) [-]4[+]

[Цитировать] 

P.S.
Это не хентай! А то найдутся еще умники - "дети увидят,ололо, разврат,как можно"

_________________
Не читал Бальзака? По **алу на-ка...
info [Профиль]  [ЛС] 

NERV666

Пол: Пол:Муж

Стаж: 6 лет 9 месяцев

Сообщений: 1624

Рейтинг

post 20-Фев-2013 14:28 (спустя 1 час) [-]1[+]

[Цитировать] 

это не хентай!
это невинный сисько жанр!

спасибо, глянем-с

_________________
info [Профиль]  [ЛС] 

ZashikiWarashi

Пол: Пол:Муж

Стаж: 4 года 1 месяц

Сообщений: 461

Предупреждений: 1

Россия
Рейтинг

post 20-Фев-2013 14:38 (спустя 9 минут) [-]0[+]

[Цитировать] 

Релизь ищо !

Преснтор фроста тесни !
info [Профиль]  [ЛС] 

sarumanboroda

Пол: Пол:Муж

Стаж: 6 лет 11 месяцев

Сообщений: 29

Рейтинг

post 20-Фев-2013 15:53 (спустя 1 час 15 минут) [-]1[+]

[Цитировать] 

barbosa писал(а):

P.S.
Это не хентай!
А жаль!
info [Профиль]  [ЛС] 

Razgildai

Пол: Пол:Муж

Стаж: 7 лет 2 месяца

Сообщений: 114

Япония
Рейтинг

post 20-Фев-2013 18:06 (спустя 2 часа 12 минут) [-]0[+]

[Цитировать] 

barbosa писал(а):

P.S.
Это не хентай! А то найдутся еще умники - "дети увидят,ололо, разврат,как можно"
эротика :3 Кстати) очень годная овашка :3 Мне понравилась kolob_117

_________________
info [Профиль]  [ЛС] 

Алмаз

Пол: Пол:Муж

Стаж: 6 лет 4 месяца

Сообщений: 1836

Россия
Рейтинг

post 20-Фев-2013 18:35 (спустя 29 минут) [-]1[+]

[Цитировать] 

barbosa писал(а):

Это не хентай! А то найдутся еще умники - "дети увидят,ололо, разврат,как можно"
Ну да, тут хентая нет. Вот здесь, здесь и здесь его тоже нет kolob_133

_________________
Паранойя - чрезвычайно утешительное состояние ума. Если вам кажется, что против вас что-то замышляют - значит вы что-то да стоите! (с) Гильбран Трус (Митчелл Сэнди - Игра предателя)
info [Профиль]  [ЛС] 

barbosa

Пол: Пол:Муж

Стаж: 7 лет 3 месяца

Сообщений: 122

Россия
Рейтинг

post 20-Фев-2013 19:09 (спустя 33 минуты) [-]0[+]

[Цитировать] 

Алмаз писал(а):

barbosa писал(а):

Это не хентай! А то найдутся еще умники - "дети увидят,ололо, разврат,как можно"
Ну да, тут хентая нет. Вот здесь, здесь и здесь его тоже нет kolob_133
Product placement kolob_182
А, так Аки и Сора вообще круть!)
И я так и знал,что на сиськах я получу больше нежели буду выкладывать, что-то умное!

_________________
Не читал Бальзака? По **алу на-ка...
info [Профиль]  [ЛС] 

I7POCTOTAK

Пол: Пол:Муж

Стаж: 6 лет 9 месяцев

Сообщений: 196

Эстония
Рейтинг

post 21-Фев-2013 11:33 (спустя 16 часов) [-]0[+]

[Цитировать] 

Дауж, у учительницы определенно сдвиг по фазе xD
info [Профиль]  [ЛС] 

precentor frost

Пол: Пол:Муж

Стаж: 7 лет 8 месяцев

Сообщений: 669

Рейтинг

post 21-Фев-2013 17:21 (спустя 5 часов) [-]0[+]

[Цитировать] 

может пригодится...

_________________
Cилы добра, света и справедливости - это три совершенно разные фракции.
info [Профиль]  [ЛС] 
Показать сообщения:    
Ответить на тему

Текущее время: 07-Дек 12:43

Часовой пояс: GMT + 4



Вы не можете начинать темы
Вы не можете отвечать на сообщения
Вы не можете редактировать свои сообщения
Вы не можете удалять свои сообщения
Вы не можете голосовать в опросах
Вы не можете прикреплять файлы к сообщениям
Вы не можете скачивать файлы