Ошибка

Корпорация монстров в 3Д/ Monsters, Inc. 3D (Пит Доктер / Pete Docter, Дэвид Силверман / David Silverman, Ли Анкрич / Lee Unkrich) [2001, мультфильм, комедия, приключения, BDRip-AVC] Half SideBySide / Горизонтальная анаморфная стереопара

Ответить на тему
 
Автор Сообщение

onicskn

Пол: Пол:Муж

Стаж: 3 года 10 месяцев

Сообщений: 55

Россия
Рейтинг

post 13-Фев-2013 20:52 0[+]

[Цитировать] 

Корпорация монстров 3Д / Monsters, Inc. 3D
"We Think They Are Scary, But Really We Scare Them!"




Режиссер:Пит Доктер / Pete Docter, Дэвид Силверман / David Silverman, Ли Анкрич / Lee Unkrich
Год выпуска:2001
Год выпуска в 3D:2013
Страна:США
Студия:Pixar Animation Studios, Walt Disney Pictures
Жанр: мультфильм, фэнтези, комедия, приключения, семейный
Продолжительность:01:32:15
Перевод:Профессиональный (дублированный)
Субтитры:Русские(Full) / Английские(Full)

Роли дублировали:Сергей Паршин, Олег Куликович, Лидия Семёнова, Евгений Дятлов, Борис Улитин.

Описание:
Действие мультфильма разворачивается в городе Монстрополисе, в котором обитают множество монстров всевозможных форм и размеров. Двое друзей-монстриков работают на крупнейшую «пугательную» корпорацию — «Корпорацию Монстров» (Monsters Inc), в должностях «старший пугальщик детей» и «помошник пугальщика». Для монстров крики детей являются необходимым для жизни источником энергии и работники этой корпорации занимаются «добычей» этого ценного «ресурса». Проблема заключается в том, что, по мнению монстров, дети являются для них токсичными существами, а потому любой контакт с ними запрещен. Ситуация меняется, когда одна из жертв, маленькая девочка, случайно попадает вместе с монстрами в их мир, ставя под угрозу и карьеру героев, и, возможно, их жизнь...



Качество:BDrip, 1080p
Контейнер:MKV
Формат 3D:Half SideBySide / Горизонтальная анаморфная стереопара
Порядок ракурсов: левый ракурс первый
Видео кодек:х264
Аудио кодек:AC3
Видео:AVC / 1920x1080p / 23.98fps / 11900 kbps
Аудио 0:Русский / AC3 / 48000Hz / 5.1 ch / 640 Kbps
Аудио 1:Английский / AC3 / 48000Hz / 5.1 ch / 640 Kbps
Субтитры:вшитые (хардсабы SRT)
1. Русские (Full)
2. Английские (Full)

Лично проверенно:3D LED-Телевизор 32 Samsung 6040
General
Unique ID : 178644146374595204092152283941949727205 (0x86659C70580E662997841AD66B58E1E5)
Complete name : Monsters.Inc.3D.(2001).1080p.BD3Drip.H-SBS.x264.Rus.Eng.AC3.z-man.mkv
Format : Matroska
Format version : Version 2
File size : 8.66 GiB
Duration : 1h 32mn
Overall bit rate : 13.4 Mbps
Movie name : Monsters.Inc.2001.3D.1080p.Bluray.H-SBS.X264.DL-zman
Encoded date : UTC 2013-02-03 19:07:03
Writing application : mkvmerge v3.4.0 ('Rapunzel') сборка от May 15 2010 09:38:20
Writing library : libebml v0.8.0 + libmatroska v0.9.0

Video
ID : 1
Format : AVC
Format/Info : Advanced Video Codec
Format profile : High@L4.1
Format settings, CABAC : Yes
Format settings, ReFrames : 4 frames
Codec ID : V_MPEG4/ISO/AVC
Duration : 1h 32mn
Bit rate : 11.9 Mbps
Width : 1 920 pixels
Height : 1 080 pixels
Display aspect ratio : 16:9
Frame rate mode : Constant
Frame rate : 23.976 fps
Color space : YUV
Chroma subsampling : 4:2:0
Bit depth : 8 bits
Scan type : Progressive
Bits/(Pixel*Frame) : 0.239
Stream size : 7.66 GiB (88%)
Title : Monsters.Inc.2001.3D.1080p.Bluray.H-SBS.X264.DL-zman
Writing library : x264 core 129 r2245 bc13772
Encoding settings : cabac=1 / ref=4 / deblock=1:-3:-3 / analyse=0x3:0x113 / me=umh / subme=9 / psy=1 / psy_rd=1.00:0.15 / mixed_ref=1 / me_range=16 / chroma_me=1 / trellis=1 / 8x8dct=1 / cqm=0 / deadzone=21,11 / fast_pskip=1 / chroma_qp_offset=-3 / threads=12 / lookahead_threads=2 / sliced_threads=0 / nr=0 / decimate=1 / interlaced=0 / bluray_compat=0 / constrained_intra=0 / bframes=6 / b_pyramid=2 / b_adapt=1 / b_bias=0 / direct=3 / weightb=1 / open_gop=0 / weightp=2 / keyint=250 / keyint_min=23 / scenecut=40 / intra_refresh=0 / rc_lookahead=40 / rc=crf / mbtree=1 / crf=16.0 / qcomp=0.60 / qpmin=10 / qpmax=69 / qpstep=4 / vbv_maxrate=40000 / vbv_bufsize=30000 / crf_max=0.0 / nal_hrd=none / ip_ratio=1.40 / aq=1:1.00
Default : No
Forced : No

Audio #1
ID : 2
Format : AC-3
Format/Info : Audio Coding 3
Mode extension : CM (complete main)
Format settings, Endianness : Big
Codec ID : A_AC3
Duration : 1h 32mn
Bit rate mode : Constant
Bit rate : 640 Kbps
Channel(s) : 6 channels
Channel positions : Front: L C R, Side: L R, LFE
Sampling rate : 48.0 KHz
Bit depth : 16 bits
Compression mode : Lossy
Stream size : 422 MiB (5%)
Title : Дубляж
Language : Russian
Default : Yes
Forced : No

Audio #2
ID : 3
Format : AC-3
Format/Info : Audio Coding 3
Mode extension : CM (complete main)
Format settings, Endianness : Big
Codec ID : A_AC3
Duration : 1h 32mn
Bit rate mode : Constant
Bit rate : 640 Kbps
Channel(s) : 6 channels
Channel positions : Front: L C R, Side: L R, LFE
Sampling rate : 48.0 KHz
Bit depth : 16 bits
Compression mode : Lossy
Stream size : 422 MiB (5%)
Language : English
Default : No
Forced : No

Text #1
ID : 4
Format : UTF-8
Codec ID : S_TEXT/UTF8
Codec ID/Info : UTF-8 Plain Text
Title : Русские (Full)
Language : Russian
Default : No
Forced : No

Text #2
ID : 5
Format : UTF-8
Codec ID : S_TEXT/UTF8
Codec ID/Info : UTF-8 Plain Text
Title : Английские (Full)
Language : English
Default : No
Forced : No

Menu
00:00:00.000 : en:00:00:00.000
00:01:33.093 : en:00:01:33.093
00:03:07.604 : en:00:03:07.604
00:04:51.124 : en:00:04:51.124
00:07:16.936 : en:00:07:16.936
00:09:11.509 : en:00:09:11.509
00:10:43.601 : en:00:10:43.601
00:11:53.796 : en:00:11:53.796
00:17:25.795 : en:00:17:25.795
00:20:06.080 : en:00:20:06.080
00:22:03.781 : en:00:22:03.781
00:25:48.422 : en:00:25:48.422
00:28:34.963 : en:00:28:34.963
00:31:06.489 : en:00:31:06.489
00:34:49.963 : en:00:34:49.963
00:36:55.630 : en:00:36:55.630
00:38:50.286 : en:00:38:50.286
00:40:27.884 : en:00:40:27.884
00:43:34.278 : en:00:43:34.278
00:45:29.727 : en:00:45:29.727
00:48:07.426 : en:00:48:07.426
00:50:37.159 : en:00:50:37.159
00:54:41.278 : en:00:54:41.278
00:57:29.446 : en:00:57:29.446
01:03:42.026 : en:01:03:42.026
01:06:25.022 : en:01:06:25.022
01:07:26.375 : en:01:07:26.375
01:13:52.136 : en:01:13:52.136
01:17:49.581 : en:01:17:49.581
01:21:24.921 : en:01:21:24.921
01:24:07.959 : en:01:24:07.959
01:25:10.230 : en:01:25:10.230
Приятного просмотра=)
info [Профиль]  [ЛС] 

barbosa

Пол: Пол:Муж

Стаж: 7 лет 3 месяца

Сообщений: 122

Россия
Рейтинг

post 15-Фев-2013 08:53 (спустя 1 день 12 часов) [-]0[+]

[Цитировать] 

Обалденный мультфильм! Жаль триДи телевизора нет,так бы посмотрел(

_________________
Не читал Бальзака? По **алу на-ка...
info [Профиль]  [ЛС] 

chingis

Пол: Пол:Муж

Стаж: 7 лет 5 месяцев

Сообщений: 2278

Россия
Рейтинг

post 18-Фев-2013 19:27 (спустя 3 дня) [-]0[+]

[Цитировать] 

Заменить кнопку с рейтингом. Скриншоты не кликабельны.

_________________
info [Профиль]  [ЛС] 

senia78

Пол: Пол:Муж

Стаж: 4 года 10 месяцев

Сообщений: 13

Россия
Рейтинг

post 06-Апр-2013 22:06 (спустя 1 месяц 16 дней) [-]0[+]

[Цитировать] 

Мульт тот же?просто в 3D?
info [Профиль]  [ЛС] 

marcuspolo

Пол: Пол:Муж

Стаж: 7 лет 1 месяц

Сообщений: 338

Россия
Рейтинг

post 07-Апр-2014 08:03 (спустя 1 год) [-]1[+]

[Цитировать] 

Майк Вазовски!)
info [Профиль]  [ЛС] 

Штайн

Пол: Пол:Муж

Стаж: 6 лет 11 месяцев

Сообщений: 40

Россия
Рейтинг

post 07-Апр-2014 18:02 (спустя 9 часов) [-]0[+]

[Цитировать] 

onicskn Спасибо за мульт. Можно вопрос, как можно смотреть 3d на 32 дюймах? Очень близко сидеть?

_________________
info [Профиль]  [ЛС] 
Показать сообщения:    
Ответить на тему

Текущее время: 08-Дек 04:15

Часовой пояс: GMT + 4



Вы не можете начинать темы
Вы не можете отвечать на сообщения
Вы не можете редактировать свои сообщения
Вы не можете удалять свои сообщения
Вы не можете голосовать в опросах
Вы не можете прикреплять файлы к сообщениям
Вы не можете скачивать файлы