Ошибка

Я, робот в 3Д / I, Robot 3D (Алекс Пройас / Alex Proyas) [2004, фантастика, боевик, триллер, детектив, BDRip-AVC] Half SideBySide / Горизонтальная анаморфная стереопара

Ответить на тему
 
Автор Сообщение

onicskn

Пол: Пол:Муж

Стаж: 3 года 10 месяцев

Сообщений: 55

Россия
Рейтинг

post 13-Фев-2013 15:47 1[+]

[Цитировать] 

Я, робот в 3Д / I, Robot 3D
Предвидел только он


Режиссер:Алекс Пройас / Alex Proyas
Год выпуска:2004
Страна:США, Германия
Студия:20th Century Fox Film Corporation
Жанр:фантастика, боевик, триллер, детектив
Продолжительность:01:54:44
Перевод:Профессиональный (дублированный)/Украинский(Многоголосный)
Субтитры:Русские(Full, forced)/английские(Full)

В ролях:Уилл Смит, Бриджет Мойнэхэн, Алан Тьюдик, Джеймс Кромуэлл, Брюс Гринвуд, Чи МакБрайд, Шайа ЛаБаф, Адриан Рикард, Джерри Вассерман, Фиона Хоган
Роли дублировали:Станислав Концевич, Светлана Репетина, Максим Сергеев, Игорь Шибанов, Валерий Кухарешин

Описание:
Действие фильма происходит в будущем (2035 г.), где роботы являются обычными помощниками человека. Главный герой — полицейский, «не переваривающий» роботов, расследует дело об убийстве, в которое оказывается вовлечен робот.
Речь идет о возможном нарушении «Закона о Роботах» (робот никогда не поднимет руки на человека), что, в принципе, невозможно. Ситуация близка к катастрофической: если машины могут нарушать этот закон, то уже ничто не остановит их от захвата контроля над людьми, тем более, что человечество уже давно стало полностью зависимо от роботов…



Качество:BDRip-AVC, 1080p
Контейнер:MKV
Формат 3D:Горизонтальная анаморфная стереопара/Half SideBySide
Порядок ракурсов: левый ракурс первый
Видео кодек: x264
Аудио кодек: AC3
Видео: AVC / High@L4.1 / 23,976 fps / 1920х1080p / 19,2 Mbps / 0.386
Аудио 0: русский: AC3 / 5.1 ch / 640 Kbps / Дубляж BD EUR
Аудио 1: украинский: AC3 / 5.1 ch / 448 Kbps / MVO BD EUR
Аудио 2: английский: AC3 / 5.1 ch / 640 Kbps / Original BD EUR
Субтитры: вшитые (хардсабы SRT)
1. Русские Forced (включены по умолчанию) одна фраза
2. Русские полные
3. English Full
Доп инфа: Сохранены главы

Лично проверено на : 3D LED-Телевизор 32 Samsung 6040
Общее
Уникальный идентификатор : 210433785444651395861495247016069092394 (0x9E5012A79967240DB5F79F550C12D42A)
Полное имя : F:\Скачка торрент\I.Robot.2004.3D.BDRip1080p.HalfSideBySide.(Killbrain).mkv
Формат : Matroska
Версия формата : Version 2
Размер файла : 17,1 Гбайт
Продолжительность : 1 ч. 54 м.
Общий поток : 21,3 Мбит/сек
Название фильма : I, Robot 3D (2004) by Killbrain
Дата кодирования : UTC 2012-10-27 16:09:17
Программа кодирования : mkvmerge v5.8.0 ('No Sleep / Pillow') built on Sep 2 2012 15:37:04
Библиотека кодирования : libebml v1.2.3 + libmatroska v1.3.0

Видео
Идентификатор : 1
Формат : AVC
Формат/Информация : Advanced Video Codec
Профиль формата : High@L4.1
Параметр CABAC формата : Да
Параметр ReFrames формата : 4 кадра
Идентификатор кодека : V_MPEG4/ISO/AVC
Продолжительность : 1 ч. 54 м.
Битрейт : 19,2 Мбит/сек
Ширина : 1920 пикселей
Высота : 1080 пикселей
Соотношение сторон : 16:9
Режим частоты кадров : Постоянный
Частота кадров : 23,976 кадра/сек
Цветовое пространство : YUV
Субдискретизация насыщенности : 4:2:0
Битовая глубина : 8 бит
Тип развёртки : Прогрессивная
Бит/(Пиксели*Кадры) : 0.386
Размер потока : 15,4 Гбайт (90%)
Заголовок : I, Robot 3D (2004)
Библиотека кодирования : x264 core 128 r2216 198a7ea
Настройки программы : cabac=1 / ref=4 / deblock=1:-3:-3 / analyse=0x3:0x113 / me=umh / subme=9 / psy=1 / psy_rd=1.00:0.15 / mixed_ref=1 / me_range=16 / chroma_me=1 / trellis=2 / 8x8dct=1 / cqm=0 / deadzone=21,11 / fast_pskip=1 / chroma_qp_offset=-3 / threads=3 / lookahead_threads=1 / sliced_threads=0 / slices=4 / nr=0 / decimate=1 / interlaced=0 / bluray_compat=0 / constrained_intra=0 / bframes=6 / b_pyramid=2 / b_adapt=2 / b_bias=0 / direct=3 / weightb=1 / open_gop=0 / weightp=2 / keyint=240 / keyint_min=23 / scenecut=40 / intra_refresh=0 / rc_lookahead=60 / rc=crf / mbtree=1 / crf=17.0 / qcomp=0.70 / qpmin=0 / qpmax=69 / qpstep=4 / vbv_maxrate=40000 / vbv_bufsize=40000 / crf_max=0.0 / nal_hrd=none / frame-packing=3 / ip_ratio=1.40 / aq=1:0.70
Язык : English
Default : Да
Forced : Нет

Аудио #1
Идентификатор : 2
Формат : AC-3
Формат/Информация : Audio Coding 3
Расширение режима : CM (complete main)
Параметр Endianness формата : Big
Идентификатор кодека : A_AC3
Продолжительность : 1 ч. 54 м.
Вид битрейта : Постоянный
Битрейт : 640 Кбит/сек
Каналы : 6 каналов
Расположение каналов : Front: L C R, Side: L R, LFE
Частота : 48,0 КГц
Битовая глубина : 16 бит
Метод сжатия : С потерями
Размер потока : 525 Мбайт (3%)
Заголовок : AC3 / 5.1 ch / 640 Kbps / Дубляж BD EUR
Язык : Russian
Default : Да
Forced : Нет

Аудио #2
Идентификатор : 3
Формат : AC-3
Формат/Информация : Audio Coding 3
Расширение режима : CM (complete main)
Параметр Endianness формата : Big
Идентификатор кодека : A_AC3
Продолжительность : 1 ч. 54 м.
Вид битрейта : Постоянный
Битрейт : 448 Кбит/сек
Каналы : 6 каналов
Расположение каналов : Front: L C R, Side: L R, LFE
Частота : 48,0 КГц
Битовая глубина : 16 бит
Метод сжатия : С потерями
Размер потока : 368 Мбайт (2%)
Заголовок : AC3 / 5.1 ch / 448 Kbps / MVO BD EUR
Язык : Ukrainian
Default : Нет
Forced : Нет

Аудио #3
Идентификатор : 4
Формат : AC-3
Формат/Информация : Audio Coding 3
Расширение режима : CM (complete main)
Параметр Endianness формата : Big
Идентификатор кодека : A_AC3
Продолжительность : 1 ч. 54 м.
Вид битрейта : Постоянный
Битрейт : 640 Кбит/сек
Каналы : 6 каналов
Расположение каналов : Front: L C R, Side: L R, LFE
Частота : 48,0 КГц
Битовая глубина : 16 бит
Метод сжатия : С потерями
Размер потока : 525 Мбайт (3%)
Заголовок : AC3 / 5.1 ch / 640 Kbps / Original BD EUR
Язык : English
Default : Нет
Forced : Нет

Текст #1
Идентификатор : 5
Формат : UTF-8
Идентификатор кодека : S_TEXT/UTF8
Идентификатор кодека/Информация : UTF-8 Plain Text
Заголовок : Forced
Язык : Russian
Default : Да
Forced : Да

Текст #2
Идентификатор : 6
Формат : UTF-8
Идентификатор кодека : S_TEXT/UTF8
Идентификатор кодека/Информация : UTF-8 Plain Text
Заголовок : Full
Язык : Russian
Default : Нет
Forced : Нет

Текст #3
Идентификатор : 7
Формат : UTF-8
Идентификатор кодека : S_TEXT/UTF8
Идентификатор кодека/Информация : UTF-8 Plain Text
Заголовок : Full
Язык : English
Default : Нет
Forced : Нет

Меню
00:00:00.000 : :Chapter 01
00:01:46.940 : :Chapter 02
00:03:30.251 : :Chapter 03
00:06:18.544 : :Chapter 04
00:07:57.518 : :Chapter 05
00:10:19.702 : :Chapter 06
00:12:11.230 : :Chapter 07
00:15:35.309 : :Chapter 08
00:17:47.983 : :Chapter 09
00:22:51.870 : :Chapter 10
00:26:14.030 : :Chapter 11
00:26:59.242 : :Chapter 12
00:33:23.167 : :Chapter 13
00:36:03.578 : :Chapter 14
00:41:23.522 : :Chapter 15
00:46:07.890 : :Chapter 16
00:49:06.026 : :Chapter 17
00:52:14.506 : :Chapter 18
00:55:22.277 : :Chapter 19
00:58:31.716 : :Chapter 20
01:00:06.769 : :Chapter 21
01:01:08.665 : :Chapter 22
01:07:56.113 : :Chapter 23
01:08:18.094 : :Chapter 24
01:10:24.303 : :Chapter 25
01:13:17.226 : :Chapter 26
01:16:53.817 : :Chapter 27
01:18:39.464 : :Chapter 28
01:20:14.226 : :Chapter 29
01:21:18.290 : :Chapter 30
01:21:57.454 : :Chapter 31
01:27:29.535 : :Chapter 32
01:28:57.665 : :Chapter 33
01:32:59.657 : :Chapter 34
01:34:45.137 : :Chapter 35
01:38:09.466 : :Chapter 36
01:41:10.898 : :Chapter 37
01:44:15.415 : :Chapter 38
01:45:02.754 : :Chapter 39
Приятного просмотра=)
info [Профиль]  [ЛС] 

chingis

Пол: Пол:Муж

Стаж: 7 лет 5 месяцев

Сообщений: 2278

Россия
Рейтинг

post 18-Фев-2013 19:25 (спустя 5 дней) [-]0[+]

[Цитировать] 

Замените кнопку с рейтингом ИМДБ.

_________________
info [Профиль]  [ЛС] 

Disney

Пол: Пол:Муж

Стаж: 5 лет

Сообщений: 97

Россия
Рейтинг

post 15-Мар-2014 13:03 (спустя 1 год) [-]0[+]

[Цитировать] 

Скриншоты не кликабельны!
info [Профиль]  [ЛС] 

AlexZoh

Пол: Пол:Муж

Стаж: 7 лет 2 месяца

Сообщений: 707

Россия
Рейтинг

post 16-Мар-2014 09:47 (спустя 20 часов) [-]0[+]

[Цитировать] 

Disney писал(а):

Скриншоты не кликабельны!
Всё открывается.
info [Профиль]  [ЛС] 

shme1ek_xd

Пол: Пол:Муж

Стаж: 3 года 11 месяцев

Сообщений: 24

Россия
Рейтинг

post 16-Мар-2014 12:08 (спустя 2 часа 20 минут) [-]0[+]

[Цитировать] 

черно-белые у меня тоже не открываются
info [Профиль]  [ЛС] 
Показать сообщения:    
Ответить на тему

Текущее время: 03-Дек 02:22

Часовой пояс: GMT + 4



Вы не можете начинать темы
Вы не можете отвечать на сообщения
Вы не можете редактировать свои сообщения
Вы не можете удалять свои сообщения
Вы не можете голосовать в опросах
Вы не можете прикреплять файлы к сообщениям
Вы не можете скачивать файлы