Ошибка

Бэтмен: Возрождение легенды. Часть 2 / Batman: The Dark Knight Returns. Part 2 (Джей Олива / Jay Oliva) [2013 г., мультфильм, боевик, комикс, BDRip 720p]

Ответить на тему
 
Автор Сообщение

barbosa

Пол: Пол:Муж

Стаж: 7 лет 3 месяца

Сообщений: 122

Россия
Рейтинг

post 12-Фев-2013 08:47 0[+]

[Цитировать] 

Бэтмен: Возрождение легенды. Часть 2
Batman: The Dark Knight Returns. Part 2

pic="http://i51.fastpic.ru/big/2013/0212/36/ef7a6ab386f7119d093be25473413036.jpg"


Год выпуска: 2013
Страна: США
Жанр: мультфильм, боевик, комикс
Продолжительность: 01:15:49
Перевод: «Пифагор» (дублированный)
Режиссер: Джей Олива / Jay Oliva
Роли озвучивали : Peter Weller - Batman / Bruce Wayne, Ariel Winter - Robin / Carrie Kelley, Michael Emerson - Joker, David Selby - Commissioner Gordon, Mark Valley - Superman / Clark Kent
Cлоган: ««Justice Returns... Vengeance Returns... Redemption Comes to Gotham»»
Бюджет: $3 500 000
Рейтинг MPAA: PG-13


Описание:
Прошло 10 лет с тех пор как стареющий Бэтмен «ушел в отставку». Готэм в упадке и беззаконии. Теперь, когда городу так нужен его герой, Бэтмен наконец возвращается. В компании Кэрри Келли — девушки-супергероя — Бэтмен решает очистить улицы от банд мутантов, которые наводнили Готэм. После того, как Бэтмен дал отпор своим злейшим врагам Джокеру и Двуликому, он вступает в смертельный бой с бывшим союзником — Суперменом. В этой схватке победит только один.
Качество: BDRip 720p
Формат: MKV
Видео: AVC, 1280x720, 23,976 fps, 4 162 kbps
Аудио: AC3; 48 kHz; 2 channels; 192 kbps - DUB [Пифагор]
Аудио 2: DTS; 48 kHz; 6 channels; 1536 kbps - ENG [Оригинал]
Субтитры: русские, русские [Notabenoid], английские
C:\Users\barbosa\Desktop\Film's\дилогия\Batman part two\Batman.The.Dark.Knight.Returns.Part.2.2013.BDRip.mkv
General
Unique ID : 232697689645547035342695597775833749252 (0xAF0FF1E18BC5EC09A54E69F0B9975704)
Complete name : C:\Users\barbosa\Desktop\Film's\дилогия\Batman part two\Batman.The.Dark.Knight.Returns.Part.2.2013.BDRip.mkv
Format : Matroska
Format version : Version 2
File size : 3.10 GiB
Duration : 1h 15mn
Overall bit rate : 5 861 Kbps
Encoded date : UTC 2013-02-09 10:39:44
Writing application : mkvmerge v5.8.0 ('No Sleep / Pillow') built on Sep 2 2012 15:37:04
Writing library : libebml v1.2.3 + libmatroska v1.3.0
Video #1
ID : 1
Format : AVC
Format/Info : Advanced Video Codec
Format profile : High@L4.1
Format settings, CABAC : Yes
Format settings, ReFrames : 9 frames
Codec ID : V_MPEG4/ISO/AVC
Duration : 1h 15mn
Bit rate : 4 162 Kbps
Width : 1 280 pixels
Height : 720 pixels
Display aspect ratio : 16:9
Frame rate : 23.976 fps
Color space : YUV
Chroma subsampling : 4:2:0
Bit depth : 8 bits
Scan type : Progressive
Bits/(Pixel*Frame) : 0.188
Stream size : 2.14 GiB (69%)
Writing library : x264 core 129 r2230 1cffe9f
Encoding settings : cabac=1 / ref=9 / deblock=1:-3:-3 / analyse=0x3:0x113 / me=umh / subme=10 / psy=1 / psy_rd=1.10:0.15 / mixed_ref=1 / me_range=32 / chroma_me=1 / trellis=2 / 8x8dct=1 / cqm=0 / deadzone=21,11 / fast_pskip=0 / chroma_qp_offset=-2 / threads=12 / lookahead_threads=2 / sliced_threads=0 / nr=0 / decimate=1 / interlaced=0 / bluray_compat=0 / constrained_intra=0 / bframes=6 / b_pyramid=2 / b_adapt=2 / b_bias=0 / direct=3 / weightb=1 / open_gop=0 / weightp=2 / keyint=250 / keyint_min=23 / scenecut=40 / intra_refresh=0 / rc_lookahead=40 / rc=2pass / mbtree=0 / bitrate=4162 / ratetol=1.0 / qcomp=0.60 / qpmin=0 / qpmax=69 / qpstep=4 / cplxblur=20.0 / qblur=0.5 / vbv_maxrate=40000 / vbv_bufsize=30000 / nal_hrd=none / ip_ratio=1.40 / pb_ratio=1.30 / aq=1:0.80
Language : English
Default : Yes
Forced : Yes
Audio #2
ID : 2
Format : AC-3
Format/Info : Audio Coding 3
Format profile : Dolby Digital
Mode extension : CM (complete main)
Format settings, Endianness : Big
Codec ID : A_AC3
Duration : 1h 15mn
Bit rate mode : Constant
Bit rate : 192 Kbps
Channel(s) : 2 channels
Channel positions : Front: L R
Sampling rate : 48.0 KHz
Bit depth : 16 bits
Compression mode : Lossy
Stream size : 104 MiB (3%)
Title : DUB [Пифагор]
Language : Russian
Default : Yes
Forced : No
Audio #3
ID : 3
Format : DTS
Format/Info : Digital Theater Systems
Codec ID : A_DTS
Duration : 1h 15mn
Bit rate mode : Constant
Bit rate : 1 510 Kbps
Channel(s) : 6 channels
Channel positions : Front: L C R, Side: L R, LFE
Sampling rate : 48.0 KHz
Bit depth : 24 bits
Compression mode : Lossy
Stream size : 819 MiB (26%)
Language : English
Default : No
Forced : No
Text #4
ID : 4
Format : UTF-8
Codec ID : S_TEXT/UTF8
Codec ID/Info : UTF-8 Plain Text
Language : Russian
Default : No
Forced : No
Text #5
ID : 5
Format : UTF-8
Codec ID : S_TEXT/UTF8
Codec ID/Info : UTF-8 Plain Text
Title : [Notabenoid]
Language : Russian
Default : No
Forced : No
Text #6
ID : 6
Format : UTF-8
Codec ID : S_TEXT/UTF8
Codec ID/Info : UTF-8 Plain Text
Language : English
Default : No
Forced : No


info [Профиль]  [ЛС] 

MoT9l

Пол: Пол:Муж

Стаж: 7 лет 8 месяцев

Сообщений: 111

Россия
Рейтинг

post 13-Фев-2013 01:07 (спустя 16 часов) [-]0[+]

[Цитировать] 

Мультфильм вышел шикарный,чего стоит сцена битвы бэтмена с супермэном.
info [Профиль]  [ЛС] 
Показать сообщения:    
Ответить на тему

Текущее время: 05-Дек 12:35

Часовой пояс: GMT + 4



Вы не можете начинать темы
Вы не можете отвечать на сообщения
Вы не можете редактировать свои сообщения
Вы не можете удалять свои сообщения
Вы не можете голосовать в опросах
Вы не можете прикреплять файлы к сообщениям
Вы не можете скачивать файлы