Ошибка

Бэтмен: Возрождение легенды. Часть 1 / Batman: The Dark Knight Returns. Part 1 (Джей Олива / Jay Oliva) [2012 г., мультфильм, боевик, комикс, BDRip 720p]

Ответить на тему
 
Автор Сообщение

barbosa

Пол: Пол:Муж

Стаж: 7 лет 3 месяца

Сообщений: 122

Россия
Рейтинг

post 11-Фев-2013 20:34 0[+]

[Цитировать] 

Бэтмен: Возрождение легенды. Часть 1
Batman: The Dark Knight Returns. Part 1

pic="http://st.kinopoisk.ru/images/film_big/673750.jpg"


Год выпуска: 2012
Страна: США
Жанр: мультфильм, боевик, комикс
Продолжительность: 01:19:45
Перевод: «CP Дистрибуция» (дублированный)
Режиссер: Джей Олива / Jay Oliva
В ролях: Ольга Шорохова, Владимир Герасимов, Михаил Тихонов, Диомид Виноградов, Петр Тобилевич, Ольга Зубкова, Пётр Иващенко
Cлоган: «Old heroes never die. They just get darker.»
Бюджет: $3 500 000
Номинации: Best Animated Special Production, Best Sound Editing - Direct to Video - Animation
Рейтинг MPAA: PG-13


Описание:
Прошло 10 лет с тех пор как стареющий Бэтмен «ушел в отставку». Готэм в упадке и беззаконии. Теперь, когда городу так нужен его герой, Бэтмен наконец возвращается. В компании Кэрри Келли — девушки-супергероя — Бэтмен решает очистить улицы от банд мутантов, которые наводнили Готэм.
Качество: BDRip 720p
Формат: MKV
Видео: AVC, 1280x720, 23,976 fps, 3373 kbps
Аудио: AC3; 48 kHz; 2 channels; 192 kbps - DUB [Лицензия]
Аудио 2: DTS; 48 kHz; 6 channels; 1536 kbps - ENG [Оригинал]
Субтитры: Русские , Английские
C:\Users\barbosa\Desktop\Film's\дилогия\Batman part one\Batman.The.Dark.Knight.Returns.Part.1.2012.BDRips.mkv
General
Unique ID : 232961196950890961615525112865322586542 (0xAF42B1CB542C823780CB3347EE6651AE)
Complete name : C:\Users\barbosa\Desktop\Film's\дилогия\Batman part one

\Batman.The.Dark.Knight.Returns.Part.1.2012.BDRips.mkv
Format : Matroska
Format version : Version 2
File size : 2.71 GiB
Duration : 1h 16mn
Overall bit rate : 5 076 Kbps
Movie name : Batman: The Dark Knight Returns, Part 1 (2012) BDRip 720p
Encoded date : UTC 2012-10-29 14:46:30
Writing application : mkvmerge v5.5.0 ('Healer') built on Apr 6 2012 21:43:24
Writing library : libebml v1.2.3 + libmatroska v1.3.0
Video #1
ID : 1
Format : AVC
Format/Info : Advanced Video Codec
Format profile : High@L4.1
Format settings, CABAC : Yes
Format settings, ReFrames : 9 frames
Codec ID : V_MPEG4/ISO/AVC
Duration : 1h 16mn
Bit rate : 3 273 Kbps
Width : 1 280 pixels
Height : 720 pixels
Display aspect ratio : 16:9
Frame rate : 23.976 fps
Color space : YUV
Chroma subsampling : 4:2:0
Bit depth : 8 bits
Scan type : Progressive
Bits/(Pixel*Frame) : 0.148
Stream size : 1.75 GiB (64%)
Title : BDRip 720p
Writing library : x264 core 128 r2216kMod 198a7ea
Encoding settings : cabac=1 / ref=9 / deblock=1:-2:-2 / analyse=0x3:0x113 / me=umh / subme=11 / psy=1 /

fade_compensate=0.00 / psy_rd=0.60:0.00 / mixed_ref=1 / me_range=48 / chroma_me=1 / trellis=2 / 8x8dct=1 /

cqm=0 / deadzone=21,11 / fast_pskip=0 / chroma_qp_offset=-2 / threads=6 / lookahead_threads=1 /

sliced_threads=0 / nr=0 / decimate=1 / interlaced=0 / bluray_compat=0 / constrained_intra=0 / bframes=10 /

b_pyramid=2 / b_adapt=2 / b_bias=0 / direct=1 / weightb=1 / open_gop=0 / weightp=2 / keyint=250 /

keyint_min=23 / scenecut=40 / intra_refresh=0 / rc=crf / mbtree=0 / crf=17.0000 / qcomp=0.60 / qpmin=0 /

qpmax=69 / qpstep=4 / ip_ratio=1.40 / pb_ratio=1.30 / aq=3:1.00
Language : English
Default : Yes
Forced : No
Color primaries : BT.709-5, BT.1361, IEC 61966-2-4, SMPTE RP177
Transfer characteristics : BT.709-5, BT.1361
Matrix coefficients : BT.709-5, BT.1361, IEC 61966-2-4 709, SMPTE RP177
Audio #2
ID : 2
Format : AC-3
Format/Info : Audio Coding 3
Mode extension : CM (complete main)
Format settings, Endianness : Big
Codec ID : A_AC3
Duration : 1h 16mn
Bit rate mode : Constant
Bit rate : 192 Kbps
Channel(s) : 2 channels
Channel positions : Front: L R
Sampling rate : 48.0 KHz
Bit depth : 16 bits
Compression mode : Lossy
Stream size : 105 MiB (4%)
Title : DUB [CP Дистрибуция]
Language : Russian
Default : Yes
Forced : No
Audio #3
ID : 3
Format : DTS
Format/Info : Digital Theater Systems
Codec ID : A_DTS
Duration : 1h 16mn
Bit rate mode : Constant
Bit rate : 1 510 Kbps
Channel(s) : 6 channels
Channel positions : Front: L C R, Side: L R, LFE
Sampling rate : 48.0 KHz
Bit depth : 24 bits
Compression mode : Lossy
Stream size : 825 MiB (30%)
Language : English
Default : No
Forced : No
Text #4
ID : 4
Format : UTF-8
Codec ID : S_TEXT/UTF8
Codec ID/Info : UTF-8 Plain Text
Language : Russian
Default : No
Forced : No
Text #5
ID : 5
Format : UTF-8
Codec ID : S_TEXT/UTF8
Codec ID/Info : UTF-8 Plain Text
Language : English
Default : No
Forced : No


info [Профиль]  [ЛС] 

Ronaldinho

Пол: Пол:Муж

Стаж: 6 лет 2 месяца

Сообщений: 2675

Россия
Рейтинг

post 11-Фев-2013 23:56 (спустя 3 часа) [-]3[+]

[Цитировать] 

Вообще-то Бэтмен: Возвращение Темного Рыцаря. Не надо проводить аналогию с триквелом Нолана - связи между ними никакой.

_________________
Barcelona and CSKA!
info [Профиль]  [ЛС] 

barbosa

Пол: Пол:Муж

Стаж: 7 лет 3 месяца

Сообщений: 122

Россия
Рейтинг

post 12-Фев-2013 07:41 (спустя 7 часов) [-]0[+]

[Цитировать] 

добавлено спустя 49 секунд:

Ronaldinho писал(а):

Вообще-то Бэтмен: Возвращение Темного Рыцаря. Не надо проводить аналогию с триквелом Нолана - связи между ними никакой.
Что?Вы,сами-то поняли,что сказали?

_________________
Не читал Бальзака? По **алу на-ка...
info [Профиль]  [ЛС] 

NickyLarin

Стаж: 7 лет 1 месяц

Сообщений: 234

Россия
Рейтинг

post 12-Фев-2013 22:16 (спустя 14 часов) [-]-1[+]

[Цитировать] 

Ronaldinho
Ну связь есть, мульт по комиксу, в фильме он тоже был взят за основу. И название правильное, так его у нас перевели.
info [Профиль]  [ЛС] 

kain804

Пол: Пол:Муж

Стаж: 6 лет 1 месяц

Сообщений: 48

Украина
Рейтинг

post 12-Фев-2013 22:23 (спустя 6 минут) [-]3[+]

[Цитировать] 

BaDBoY4732 писал(а):

Ronaldinho
Ну связь есть, мульт по комиксу, в фильме он тоже был взят за основу. И название правильное, так его у нас перевели.
с каких пор то, как у нас перевели - это правильно?
info [Профиль]  [ЛС] 

barbosa

Пол: Пол:Муж

Стаж: 7 лет 3 месяца

Сообщений: 122

Россия
Рейтинг

post 12-Фев-2013 22:53 (спустя 29 минут) [-]-1[+]

[Цитировать] 

kain804 писал(а):

BaDBoY4732 писал(а):

Ronaldinho
Ну связь есть, мульт по комиксу, в фильме он тоже был взят за основу. И название правильное, так его у нас перевели.
с каких пор то, как у нас перевели - это правильно?
Не смысле,что перевели правильно,а что правильным теперь считается,ибо так решили великие переводчики!

_________________
Не читал Бальзака? По **алу на-ка...
info [Профиль]  [ЛС] 

Nitros

Пол: Пол:Муж

Стаж: 6 лет 8 месяцев

Сообщений: 236

Россия
Рейтинг

post 09-Апр-2013 14:47 (спустя 1 месяц 24 дня) [-]0[+]

[Цитировать] 

Хорош мульт, серьезен.

_________________
MB: Asus Sabertooth Z77
CPU: Intel Core i7-3770 @3.40 GHz
Video: GeForce GTX 680 4Gb DDR5
RAM: 16Gb 1866 MHz
HDD: ST 2Tb + 120Gb SSD OCZ-AGILITY (Windows)

ViewSonic VX2753 Series [27' LCD]
Win 7 Ultimate x64
Beeline Internet DL | UL - 100 Мбит/с
info [Профиль]  [ЛС] 
Показать сообщения:    
Ответить на тему

Текущее время: 03-Дек 15:40

Часовой пояс: GMT + 4



Вы не можете начинать темы
Вы не можете отвечать на сообщения
Вы не можете редактировать свои сообщения
Вы не можете удалять свои сообщения
Вы не можете голосовать в опросах
Вы не можете прикреплять файлы к сообщениям
Вы не можете скачивать файлы