Ошибка

Реутов ТВ (3 сезон, 13 серий из 13) [2012 г., Юмор, WEB-DLRip]

Ответить на тему
 
Автор Сообщение

_Knyazev_

Пол: Пол:Муж

Стаж: 5 лет 2 месяца

Сообщений: 38

Россия
Рейтинг

post 16-Янв-2013 15:43 3[+]

[Цитировать] 

Реутов ТВ

Год выпуска: 2012
Страна: Россия
Жанр: ТВ-Шоу, Юмор
Выпуски: 1-13 из 13 (полный 3-й сезон)
Продолжительность: ~ 23 минуты каждая серия.
Перевод: не требуется
Режиссер: Телеканал 2x2
Ведущие:
  • Владимир Маркони (Анатолий Шмель)
  • Сергей Мезенцев (Илья Огурцов)

Описание: Реутов ТВ – новая программа ставшая популярной на канале 2x2 и на Youtube создателей проектов Подольск ТВ и Реутов ТВ. Сарказм, жесткий стёб над участниками и подражание провинциальному телевидению – отличительные характеристики этой программы.
3 сезон - "Реутов ТВ" открывают Россию. Автопробег "Москва-Владивосток". Как это было.

Релиз группа: by Knyazev
Качество: WEBDL-Rip
Формат: AVI
Видео кодек: Xvid
Аудио кодек: MP3
Видео: 720x540, 25fps, 1882kbps
Аудио: 2ch, 160kbps, 44.1KHz
Первый выпуск увлекательнейшей программы "Реутов ТВ открывает Россию" об автоприключениях корреспондентов Ильи Огурцова и Анатолия Шмеля! Новые сюжеты, новые герои, удивительные ракурсы и только профессиональный подход!

Код:

General
Complete name                  : D:\PeyToB_TB_S03\PeyToB_TB_s03e01.avi
Format                         : AVI
Format/Info                    : Audio Video Interleave
File size                      : 337 MiB
Duration                       : 23mn 29s
Overall bit rate               : 2 005 Kbps
Writing application            : Lavf52.94.0

Video
ID                             : 0
Format                         : xvid
Codec ID                       : xvid
Duration                       : 23mn 29s
Bit rate                       : 1 832 Kbps
Width                          : 720 pixels
Height                         : 540 pixels
Display aspect ratio           : 4:3
Frame rate                     : 25.000 fps
Bits/(Pixel*Frame)             : 0.189
Stream size                    : 308 MiB (91%)

Audio
ID                             : 1
Format                         : MPEG Audio
Format version                 : Version 1
Format profile                 : Layer 3
Mode                           : Joint stereo
Mode extension                 : MS Stereo
Codec ID                       : 55
Codec ID/Hint                  : MP3
Duration                       : 23mn 29s
Bit rate mode                  : Constant
Bit rate                       : 160 Kbps
Channel(s)                     : 2 channels
Sampling rate                  : 44.1 KHz
Compression mode               : Lossy
Stream size                    : 26.9 MiB (8%)
Alignment                      : Aligned on interleaves
Interleave, duration           : 26 ms (0.65 video frame)
Writing library                : LAME3.98.4
В этом выпуске: многочасовое путешествие по столице России и отчаянные попытки победить автомобильные пробки; опасное приключение на зоологической базе по подготовке животных к съемкам в кино; армрестлинг с мэром города Дзержинска, - и многое другое.

Код:

General
Complete name                  : D:\PeyToB_TB_S03\PeyToB_TB_s03e02.avi
Format                         : AVI
Format/Info                    : Audio Video Interleave
File size                      : 350 MiB
Duration                       : 24mn 21s
Overall bit rate               : 2 006 Kbps
Writing application            : Lavf52.94.0

Video
ID                             : 0
Format                         : xvid
Codec ID                       : xvid
Duration                       : 24mn 21s
Bit rate                       : 1 833 Kbps
Width                          : 720 pixels
Height                         : 540 pixels
Display aspect ratio           : 4:3
Frame rate                     : 25.000 fps
Bits/(Pixel*Frame)             : 0.189
Stream size                    : 320 MiB (91%)

Audio
ID                             : 1
Format                         : MPEG Audio
Format version                 : Version 1
Format profile                 : Layer 3
Mode                           : Joint stereo
Mode extension                 : MS Stereo
Codec ID                       : 55
Codec ID/Hint                  : MP3
Duration                       : 24mn 21s
Bit rate mode                  : Constant
Bit rate                       : 160 Kbps
Channel(s)                     : 2 channels
Sampling rate                  : 44.1 KHz
Compression mode               : Lossy
Stream size                    : 27.9 MiB (8%)
Alignment                      : Aligned on interleaves
Interleave, duration           : 26 ms (0.65 video frame)
Writing library                : LAME3.98.4
В этом выпуске вы узнаете, как не надо сушить носки и что случилось с подарком для Светланы из Владивостока, а также увидите увлекательную видеоэкскурсию по Горьковскому Автомобильному Заводу, обворожительную фотосессию Ильи Огурцова, уроки эротического мастерства, неудавшееся интервью Анатолия Шмеля и многое другое!

Код:

General
Complete name                  : D:\PeyToB_TB_S03\PeyToB_TB_s03e03.avi
Format                         : AVI
Format/Info                    : Audio Video Interleave
File size                      : 356 MiB
Duration                       : 24mn 56s
Overall bit rate               : 1 994 Kbps
Writing application            : Lavf52.94.0

Video
ID                             : 0
Format                         : xvid
Codec ID                       : xvid
Duration                       : 24mn 56s
Bit rate                       : 1 822 Kbps
Width                          : 720 pixels
Height                         : 540 pixels
Display aspect ratio           : 4:3
Frame rate                     : 25.000 fps
Bits/(Pixel*Frame)             : 0.187
Stream size                    : 325 MiB (91%)

Audio
ID                             : 1
Format                         : MPEG Audio
Format version                 : Version 1
Format profile                 : Layer 3
Mode                           : Joint stereo
Mode extension                 : MS Stereo
Codec ID                       : 55
Codec ID/Hint                  : MP3
Duration                       : 24mn 56s
Bit rate mode                  : Constant
Bit rate                       : 160 Kbps
Channel(s)                     : 2 channels
Sampling rate                  : 44.1 KHz
Compression mode               : Lossy
Stream size                    : 28.6 MiB (8%)
Alignment                      : Aligned on interleaves
Interleave, duration           : 26 ms (0.65 video frame)
Writing library                : LAME3.98.4
Реутов ТВ продолжает свое путешествие по России. По дороге корреспонденты Огурцов и Шмель заехали в Обитель в честь образа Пресвятой Богородицы "Воскрешающая Русь", где местная послушница рассказала Илье страшную тайну о его возлюбленной. В этой серии вы также узнаете о том, что Леший сказал о будущем Ильи и Светланы, познакомитесь с приветливыми чебоксарцами, узнаете, где был зачат Василий Иванович Чапаев, и услышите историю основания города Казани.

Код:

General
Complete name                  : D:\PeyToB_TB_S03\PeyToB_TB_s03e04.avi
Format                         : AVI
Format/Info                    : Audio Video Interleave
File size                      : 338 MiB
Duration                       : 23mn 33s
Overall bit rate               : 2 005 Kbps
Writing application            : Lavf52.94.0

Video
ID                             : 0
Format                         : xvid
Codec ID                       : xvid
Duration                       : 23mn 33s
Bit rate                       : 1 832 Kbps
Width                          : 720 pixels
Height                         : 540 pixels
Display aspect ratio           : 4:3
Frame rate                     : 25.000 fps
Bits/(Pixel*Frame)             : 0.188
Stream size                    : 309 MiB (91%)

Audio
ID                             : 1
Format                         : MPEG Audio
Format version                 : Version 1
Format profile                 : Layer 3
Mode                           : Joint stereo
Mode extension                 : MS Stereo
Codec ID                       : 55
Codec ID/Hint                  : MP3
Duration                       : 23mn 33s
Bit rate mode                  : Constant
Bit rate                       : 160 Kbps
Channel(s)                     : 2 channels
Sampling rate                  : 44.1 KHz
Compression mode               : Lossy
Stream size                    : 27.0 MiB (8%)
Alignment                      : Aligned on interleaves
Interleave, duration           : 26 ms (0.65 video frame)
Writing library                : LAME3.98.4
Кто именно любит Самару? Почему на Сабантуй нужно надевать гульфик? Как нужно отмечать День рождения великого русского поэта Александра Сергеевича Пушкина? А также рэп от Ильи Огурцова и стихи от Анатолия Шмеля.

Код:

General
Complete name                  : D:\PeyToB_TB_S03\PeyToB_TB_s03e05.avi
Format                         : AVI
Format/Info                    : Audio Video Interleave
File size                      : 329 MiB
Duration                       : 22mn 57s
Overall bit rate               : 2 006 Kbps
Writing application            : Lavf52.94.0

Video
ID                             : 0
Format                         : xvid
Codec ID                       : xvid
Duration                       : 22mn 56s
Bit rate                       : 1 834 Kbps
Width                          : 720 pixels
Height                         : 540 pixels
Display aspect ratio           : 4:3
Frame rate                     : 25.000 fps
Bits/(Pixel*Frame)             : 0.189
Stream size                    : 301 MiB (91%)

Audio
ID                             : 1
Format                         : MPEG Audio
Format version                 : Version 1
Format profile                 : Layer 3
Mode                           : Joint stereo
Mode extension                 : MS Stereo
Codec ID                       : 55
Codec ID/Hint                  : MP3
Duration                       : 22mn 57s
Bit rate mode                  : Constant
Bit rate                       : 160 Kbps
Channel(s)                     : 2 channels
Sampling rate                  : 44.1 KHz
Compression mode               : Lossy
Stream size                    : 26.3 MiB (8%)
Alignment                      : Aligned on interleaves
Interleave, duration           : 26 ms (0.65 video frame)
Writing library                : LAME3.98.4
Русские самодвижущиеся повозки из Тольятти? Конечно, это АвтоВАЗ, лучший автомобильный завод в мире, где начальство борется с качеством продукции! Огнестрельное оружие? Конечно, Ижевск и оружейный завод ИЖМАШ!

Код:

General
Complete name                  : D:\PeyToB_TB_S03\PeyToB_TB_s03e06.avi
Format                         : AVI
Format/Info                    : Audio Video Interleave
File size                      : 349 MiB
Duration                       : 24mn 20s
Overall bit rate               : 2 007 Kbps
Writing application            : Lavf52.94.0

Video
ID                             : 0
Format                         : xvid
Codec ID                       : xvid
Duration                       : 24mn 20s
Bit rate                       : 1 834 Kbps
Width                          : 720 pixels
Height                         : 540 pixels
Display aspect ratio           : 4:3
Frame rate                     : 25.000 fps
Bits/(Pixel*Frame)             : 0.189
Stream size                    : 319 MiB (91%)

Audio
ID                             : 1
Format                         : MPEG Audio
Format version                 : Version 1
Format profile                 : Layer 3
Mode                           : Joint stereo
Mode extension                 : MS Stereo
Codec ID                       : 55
Codec ID/Hint                  : MP3
Duration                       : 24mn 20s
Bit rate mode                  : Constant
Bit rate                       : 160 Kbps
Channel(s)                     : 2 channels
Sampling rate                  : 44.1 KHz
Compression mode               : Lossy
Stream size                    : 27.9 MiB (8%)
Alignment                      : Aligned on interleaves
Interleave, duration           : 26 ms (0.65 video frame)
Writing library                : LAME3.98.4
В этом выпуске телевидение осветило свадьбу рядовых российских граждан. Из-за переизбытка эмоций Илья Огурцов дал себе немного воли. Далее Лада Калина отправилась в знаменитый поселок Бураново к звездам отечественного шоу-бизнеса. Также вы увидите праздник "День России" и многое другое!

Код:

General
Complete name                  : D:\PeyToB_TB_S03\PeyToB_TB_s03e07.avi
Format                         : AVI
Format/Info                    : Audio Video Interleave
File size                      : 347 MiB
Duration                       : 24mn 9s
Overall bit rate               : 2 007 Kbps
Writing application            : Lavf52.94.0

Video
ID                             : 0
Format                         : xvid
Codec ID                       : xvid
Duration                       : 24mn 9s
Bit rate                       : 1 835 Kbps
Width                          : 720 pixels
Height                         : 540 pixels
Display aspect ratio           : 4:3
Frame rate                     : 25.000 fps
Bits/(Pixel*Frame)             : 0.189
Stream size                    : 317 MiB (91%)

Audio
ID                             : 1
Format                         : MPEG Audio
Format version                 : Version 1
Format profile                 : Layer 3
Mode                           : Joint stereo
Mode extension                 : MS Stereo
Codec ID                       : 55
Codec ID/Hint                  : MP3
Duration                       : 24mn 9s
Bit rate mode                  : Constant
Bit rate                       : 160 Kbps
Channel(s)                     : 2 channels
Sampling rate                  : 44.1 KHz
Compression mode               : Lossy
Stream size                    : 27.6 MiB (8%)
Alignment                      : Aligned on interleaves
Interleave, duration           : 26 ms (0.65 video frame)
Writing library                : LAME3.98.4
В этом выпуске вы увидите яркий, стильный, уникальный тюнинг автомобиля Лада Калина; побываете в Ледяной пещере города Кунгур и услышите чудесную музыку подземелья; узнаете об аномальных событиях в селе Молебка и многое другое!

Код:

General
Complete name                  : D:\PeyToB_TB_S03\PeyToB_TB_s03e08.avi
Format                         : AVI
Format/Info                    : Audio Video Interleave
File size                      : 317 MiB
Duration                       : 22mn 9s
Overall bit rate               : 1 998 Kbps
Writing application            : Lavf52.94.0

Video
ID                             : 0
Format                         : xvid
Codec ID                       : xvid
Duration                       : 22mn 9s
Bit rate                       : 1 825 Kbps
Width                          : 720 pixels
Height                         : 540 pixels
Display aspect ratio           : 4:3
Frame rate                     : 25.000 fps
Bits/(Pixel*Frame)             : 0.188
Stream size                    : 289 MiB (91%)

Audio
ID                             : 1
Format                         : MPEG Audio
Format version                 : Version 1
Format profile                 : Layer 3
Mode                           : Joint stereo
Mode extension                 : MS Stereo
Codec ID                       : 55
Codec ID/Hint                  : MP3
Duration                       : 22mn 9s
Bit rate mode                  : Constant
Bit rate                       : 160 Kbps
Channel(s)                     : 2 channels
Sampling rate                  : 44.1 KHz
Compression mode               : Lossy
Stream size                    : 25.4 MiB (8%)
Alignment                      : Aligned on interleaves
Interleave, duration           : 26 ms (0.65 video frame)
Writing library                : LAME3.98.4
В этом выпуске: ностальгические воспоминания знакомства Огурцова со Шмелем, грустные нотки последнего звонка. Коренной, до мозга костей, омич поведает Огурцову как жить в нашем не простом мире.

Код:

General
Complete name                  : D:\PeyToB_TB_S03\PeyToB_TB_s03e09.avi
Format                         : AVI
Format/Info                    : Audio Video Interleave
File size                      : 357 MiB
Duration                       : 24mn 54s
Overall bit rate               : 2 006 Kbps
Writing application            : Lavf52.94.0

Video
ID                             : 0
Format                         : xvid
Codec ID                       : xvid
Duration                       : 24mn 54s
Bit rate                       : 1 833 Kbps
Width                          : 720 pixels
Height                         : 540 pixels
Display aspect ratio           : 4:3
Frame rate                     : 25.000 fps
Bits/(Pixel*Frame)             : 0.189
Stream size                    : 327 MiB (91%)

Audio
ID                             : 1
Format                         : MPEG Audio
Format version                 : Version 1
Format profile                 : Layer 3
Mode                           : Joint stereo
Mode extension                 : MS Stereo
Codec ID                       : 55
Codec ID/Hint                  : MP3
Duration                       : 24mn 54s
Bit rate mode                  : Constant
Bit rate                       : 160 Kbps
Channel(s)                     : 2 channels
Sampling rate                  : 44.1 KHz
Compression mode               : Lossy
Stream size                    : 28.5 MiB (8%)
Alignment                      : Aligned on interleaves
Interleave, duration           : 26 ms (0.65 video frame)
Writing library                : LAME3.98.4
Новосибирск, матка русских ученых! Именно в Новосибирске Илья Огурцов приобрел новую, модную прическу и отдохнул, наконец, на городском пляже. И именно здесь с Лады Калины сняли колеса! Как вы могли, новосибирцы?!

Код:

General
Complete name                  : D:\PeyToB_TB_S03\PeyToB_TB_s03e10.avi
Format                         : AVI
Format/Info                    : Audio Video Interleave
File size                      : 341 MiB
Duration                       : 23mn 48s
Overall bit rate               : 2 004 Kbps
Writing application            : Lavf52.94.0

Video
ID                             : 0
Format                         : xvid
Codec ID                       : xvid
Duration                       : 23mn 48s
Bit rate                       : 1 832 Kbps
Width                          : 720 pixels
Height                         : 540 pixels
Display aspect ratio           : 4:3
Frame rate                     : 25.000 fps
Bits/(Pixel*Frame)             : 0.188
Stream size                    : 312 MiB (91%)

Audio
ID                             : 1
Format                         : MPEG Audio
Format version                 : Version 1
Format profile                 : Layer 3
Mode                           : Joint stereo
Mode extension                 : MS Stereo
Codec ID                       : 55
Codec ID/Hint                  : MP3
Duration                       : 23mn 48s
Bit rate mode                  : Constant
Bit rate                       : 160 Kbps
Channel(s)                     : 2 channels
Sampling rate                  : 44.1 KHz
Compression mode               : Lossy
Stream size                    : 27.2 MiB (8%)
Alignment                      : Aligned on interleaves
Interleave, duration           : 26 ms (0.65 video frame)
Writing library                : LAME3.98.4
Томительное ожидание встречи с дорогой сердцу женщиной толкает Илью Огурцова на необычные поступки, но чего не сделаешь ради любви!

Код:

General
Complete name                  : D:\PeyToB_TB_S03\PeyToB_TB_s03e11.avi
Format                         : AVI
Format/Info                    : Audio Video Interleave
File size                      : 323 MiB
Duration                       : 22mn 41s
Overall bit rate               : 1 990 Kbps
Writing application            : Lavf52.94.0

Video
ID                             : 0
Format                         : xvid
Codec ID                       : xvid
Duration                       : 22mn 41s
Bit rate                       : 1 818 Kbps
Width                          : 720 pixels
Height                         : 540 pixels
Display aspect ratio           : 4:3
Frame rate                     : 25.000 fps
Bits/(Pixel*Frame)             : 0.187
Stream size                    : 295 MiB (91%)

Audio
ID                             : 1
Format                         : MPEG Audio
Format version                 : Version 1
Format profile                 : Layer 3
Mode                           : Joint stereo
Mode extension                 : MS Stereo
Codec ID                       : 55
Codec ID/Hint                  : MP3
Duration                       : 22mn 41s
Bit rate mode                  : Constant
Bit rate                       : 160 Kbps
Channel(s)                     : 2 channels
Sampling rate                  : 44.1 KHz
Compression mode               : Lossy
Stream size                    : 26.0 MiB (8%)
Alignment                      : Aligned on interleaves
Interleave, duration           : 26 ms (0.65 video frame)
Writing library                : LAME3.98.4
Корреспонденты Реутов ТВ въехали в Байкал! Как они справились с этой проблемой? Что ждало их в Улан-Удэ?

Код:

General
Complete name                  : D:\PeyToB_TB_S03\PeyToB_TB_s03e12.avi
Format                         : AVI
Format/Info                    : Audio Video Interleave
File size                      : 312 MiB
Duration                       : 22mn 39s
Overall bit rate               : 1 928 Kbps
Writing application            : Lavf52.94.0

Video
ID                             : 0
Format                         : xvid
Codec ID                       : xvid
Duration                       : 22mn 39s
Bit rate                       : 1 755 Kbps
Width                          : 720 pixels
Height                         : 540 pixels
Display aspect ratio           : 4:3
Frame rate                     : 25.000 fps
Bits/(Pixel*Frame)             : 0.181
Stream size                    : 285 MiB (91%)

Audio
ID                             : 1
Format                         : MPEG Audio
Format version                 : Version 1
Format profile                 : Layer 3
Mode                           : Joint stereo
Mode extension                 : MS Stereo
Codec ID                       : 55
Codec ID/Hint                  : MP3
Duration                       : 22mn 39s
Bit rate mode                  : Constant
Bit rate                       : 160 Kbps
Channel(s)                     : 2 channels
Sampling rate                  : 44.1 KHz
Compression mode               : Lossy
Stream size                    : 25.9 MiB (8%)
Alignment                      : Aligned on interleaves
Interleave, duration           : 26 ms (0.65 video frame)
Writing library                : LAME3.98.4
Наконец, корреспонденты Реутов ТВ оказались во Владивостоке! Как встретила Светлана Илью?

Код:

General
Complete name                  : D:\PeyToB_TB_S03\PeyToB_TB_s03e13.avi
Format                         : AVI
Format/Info                    : Audio Video Interleave
File size                      : 345 MiB
Duration                       : 24mn 8s
Overall bit rate               : 2 000 Kbps
Writing application            : Lavf52.94.0

Video
ID                             : 0
Format                         : xvid
Codec ID                       : xvid
Duration                       : 24mn 8s
Bit rate                       : 1 828 Kbps
Width                          : 720 pixels
Height                         : 540 pixels
Display aspect ratio           : 4:3
Frame rate                     : 25.000 fps
Bits/(Pixel*Frame)             : 0.188
Stream size                    : 316 MiB (91%)

Audio
ID                             : 1
Format                         : MPEG Audio
Format version                 : Version 1
Format profile                 : Layer 3
Mode                           : Joint stereo
Mode extension                 : MS Stereo
Codec ID                       : 55
Codec ID/Hint                  : MP3
Duration                       : 24mn 8s
Bit rate mode                  : Constant
Bit rate                       : 160 Kbps
Channel(s)                     : 2 channels
Sampling rate                  : 44.1 KHz
Compression mode               : Lossy
Stream size                    : 27.6 MiB (8%)
Alignment                      : Aligned on interleaves
Interleave, duration           : 26 ms (0.65 video frame)
Writing library                : LAME3.98.4
info [Профиль]  [ЛС] 

_Knyazev_

Пол: Пол:Муж

Стаж: 5 лет 2 месяца

Сообщений: 38

Россия
Рейтинг

post 16-Янв-2013 17:11 (спустя 1 час 28 минут) [-]1[+]

[Цитировать] 

Вот собственно полный 3-й сезон "Реутов ТВ", скачанный мною* с официального сайта и конвертнутый сразу же в кодек Xvid (AVC -> Xvid), чтобы была возможность посмотреть сезон на ТВ с помощью бытового плеера Улыбаюсь
* Аналогично я поступил с 1-ым и 2-ым сезонами, которые тут тоже есть на трекере.

Сезон просто улётный Смеюсь

Всем приятного просмотра Подмигиваю
info [Профиль]  [ЛС] 

Нищеброд

Стаж: 4 года 11 месяцев

Сообщений: 5

Россия
Рейтинг

post 17-Янв-2013 08:19 (спустя 15 часов) [-]0[+]

[Цитировать] 

_Knyazev_
А есть архив письмошной? Они половину видео по удаляли уже.
И 2 Гига Любви было-бы неплохо выложить. В высоком качестве естественно.
3 сезон не очень по моему. От второго-то уже говнецом пахло. 1 единственный нормальный был, ну и ролики письмошной: Подольск vs Реутов.
info [Профиль]  [ЛС] 

_Knyazev_

Пол: Пол:Муж

Стаж: 5 лет 2 месяца

Сообщений: 38

Россия
Рейтинг

post 17-Янв-2013 13:27 (спустя 5 часов) [-]0[+]

[Цитировать] 

Архив лишь на Ютубе (здесь), и то, там большинство анонсов, мало что уже можно собрать в полноценный сборник. Просто я знаю, читал где-то, что права на ролики от Письмошной выкупили сначала MTV, затем 2х2 канал, из-за этого и пришлось с Ютуба удалить им достаточное кол-во видео-роликов.
Если откапаю что-нибудь стоящее на просторах ру-нета, то возможно и выложу тут)
А так я не вижу смысла с Ютуба выкачивать неполноценные ролики, тем более в качестве TVRip. (Ведь ролики у Письмошной никогда не были в HD-формате, даже сейчас!)
info [Профиль]  [ЛС] 

Нищеброд

Стаж: 4 года 11 месяцев

Сообщений: 5

Россия
Рейтинг

post 17-Янв-2013 15:25 (спустя 1 час 58 минут) [-]1[+]

[Цитировать] 

_Knyazev_
Да это не архив. На их канал я сам подписан. Меня интересуют ролики письмошной, которые еще в ЖЖ были. + если найдешь их новогодние выпуски, буду очень рад. Сколько искал - только отрывки нашел. Хоть сам рипы пиши.
info [Профиль]  [ЛС] 

Sammo Hung

Пол: Пол:Муж

Стаж: 6 лет 11 месяцев

Сообщений: 714

Предупреждений: 3

СССР
Рейтинг

post 18-Янв-2013 13:03 (спустя 21 час) [-]1[+]

[Цитировать] 

иван 2000 Улыбаюсь))
info [Профиль]  [ЛС] 
Показать сообщения:    
Ответить на тему

Текущее время: 06-Дек 12:17

Часовой пояс: GMT + 4



Вы не можете начинать темы
Вы не можете отвечать на сообщения
Вы не можете редактировать свои сообщения
Вы не можете удалять свои сообщения
Вы не можете голосовать в опросах
Вы не можете прикреплять файлы к сообщениям
Вы не можете скачивать файлы