Ошибка

До окончания фрилича осталось:


Хаккэндэн: Легенда о восьми Псах Востока / Hakkenden: Touhou Hakken Ibun [TV][1-13 из 13][2013][приключения, мистика, сёдзё][HDTVRip][720p][Любительский (JAP+SUB)]

Ответить на тему
 
Автор Сообщение

Sunny17

Пол: Пол:Жен

Стаж: 7 лет 3 месяца

Сообщений: 733

Россия
Рейтинг

post 15-Янв-2013 18:19 3[+]

[Цитировать] 

Хаккэндэн: Легенда о восьми Псах Востока | Hakkenden: Touhou Hakken Ibun | Hakkenden: Eight Dogs of the East | 八犬伝―東方八犬異聞―


Выпуск: c 06.01.2013 по 31.03.2013
Страна:
Жанр: приключения, мистика, сёдзё
Тип: ТВ (13 эп.)
Продолжительность: 25 мин.

Режиссер: Ямасаки Осаму / Yamasaki Osamu / 山崎理
Снято по манге: Hakkenden Touhou Hakken Ibun / 八犬伝―東方八犬異聞―
Автор оригинала: Абе Миюки / Abe Miyuki / あべ美幸
Студия:


Хаккэндэн: Легенда о восьми Псах Востока 2 / Hakkenden: Touhou Hakken Ibun 2 [TV]
Озвучка:
  • Любительская (двухголосая) | ZaRT & Kiara_Laine (AniMedia)| ext | 1-13 |
Субтитры:
  • русские (внешние, ass) | Amanri & HR & L-MT | 1-13 |

Описание: По легенде, от нежданного духовного союза демона-пса и принцессы земли Ава произошли восемь великих воинов. Каждого из них отличали три вещи: знак «ину», то есть «пес», в нареченном имени, родимое пятно в виде пиона и бусина четок с названием одной из конфуцианских добродетелей. По воле судьбы духовные братья могли родиться в разных семьях и стать врагами в бесконечных японских междоусобицах. Но сейчас на дворе не «эпоха смут», а сравнительно мирная, хотя и весьма странная эра Мэйдзи.

Впрочем, и в этом альтернативно-пасторальном мире сжигают целые деревни – якобы для борьбы с чумой. Сино, Сосукэ и Хамадзи - трое выживших из деревни Оцука – уже пять лет живут в небольшой церкви в горной глуши. Но если местный настоятель знает их тайну и защищает ребят, то сильные мира сего хотят знать, куда делся демонический меч Мурасамэ и не завелись ли в горах пособники демонов? Вокруг Сино и правда вьются темные слухи, да и люди в округе начали пропадать. В игру вступают разные силы, но если с мелкой сошкой герои справляются легко, то от столичных инквизиторов так просто не избавиться…
© Hollow, World Art

Качество: HDTVRip, 720p [Leopard-Raws]
Хардсаб: Отсутствует
Формат: Matroska
Видео: x264 (AVC) , 1280х720 (16:9), 23.976 fps, ~1900 kbps
Аудио:
  • - AAC, 48,0 KHz, 2 channels (Front: L R), ~190 kbps
  • - AAC, 48,0 KHz, 2 channels (Front: L R), ~190 kbps

Hakkenden - Touhou Hakken Ibun\Sound [Animedia]\[Leopard-Raws] Hakkenden - Touhou Hakken Ibun - 03 RAW (MX 1280x720 x264 AAC).mka
Format : Matroska
Format version : Version 4 / Version 2
File size : 33.2 MiB
Duration : 23mn 59s
Overall bit rate : 193 Kbps
Encoded date : UTC 2013-07-30 08:05:52
Writing application : mkvmerge v6.3.0 ('You can't stop me!') built on Jun 28 2013 20:09:41
Writing library : libebml v1.3.0 + libmatroska v1.4.0

Audio
ID : 1
Format : AAC
Format/Info : Advanced Audio Codec
Format profile : LC
Codec ID : A_AAC
Duration : 23mn 59s
Channel(s) : 2 channels
Channel positions : Front: L R
Sampling rate : 48.0 KHz
Compression mode : Lossy
Title : Russian ZaRT & Kiara_Laine
Language : English
Default : Yes
Forced : Yes

Hakkenden - Touhou Hakken Ibun\Rus Sound [ZaRT & Kiara_Laine]\[Leopard-Raws] Hakkenden - Touhou Hakken Ibun - 01 RAW (MX 1280x720 x264 AAC).mka
Format : Matroska
Format version : Version 4 / Version 2
File size : 22.1 MiB
Duration : 23mn 59s
Overall bit rate : 129 Kbps
Encoded date : UTC 2010-02-22 21:41:31
Writing application : mkvmerge v5.9.0 ('On The Loose') built on Dec 9 2012 15:37:01
Writing library : libebml v1.3.0 + libmatroska v1.4.0

Audio
ID : 1
Format : AAC
Format/Info : Advanced Audio Codec
Format profile : LC
Codec ID : A_AAC
Duration : 23mn 59s
Channel(s) : 2 channels
Channel positions : Front: L R
Sampling rate : 44.1 KHz
Compression mode : Lossy
Language : English
Default : Yes
Forced : No

Hakkenden - Touhou Hakken Ibun\[Leopard-Raws] Hakkenden - Touhou Hakken Ibun - 01 RAW (MX 1280x720 x264 AAC).mp4
Format : MPEG-4
Format profile : Base Media
Codec ID : isom
File size : 343 MiB
Duration : 23mn 59s
Overall bit rate mode : Variable
Overall bit rate : 2 000 Kbps
Encoded date : UTC 2013-01-06 03:23:18
Tagged date : UTC 2013-01-06 03:23:18

Video
ID : 1
Format : AVC
Format/Info : Advanced Video Codec
Format profile : High@L4.1
Format settings, CABAC : Yes
Format settings, ReFrames : 3 frames
Codec ID : avc1
Codec ID/Info : Advanced Video Coding
Duration : 23mn 59s
Bit rate : 1 837 Kbps
Maximum bit rate : 7 673 Kbps
Width : 1 280 pixels
Height : 720 pixels
Display aspect ratio : 16:9
Frame rate mode : Variable
Frame rate : 23.976 fps
Minimum frame rate : 23.976 fps
Maximum frame rate : 47.952 fps
Color space : YUV
Chroma subsampling : 4:2:0
Bit depth : 8 bits
Scan type : Progressive
Bits/(Pixel*Frame) : 0.083
Stream size : 315 MiB (92%)
Writing library : x264 core 129 r2230 1cffe9f
Encoding settings : cabac=1 / ref=3 / deblock=1:-2:-2 / analyse=0x3:0x133 / me=umh / subme=9 / psy=1 / psy_rd=1.00:0.00 / mixed_ref=1 / me_range=24 / chroma_me=1 / trellis=2 / 8x8dct=1 / cqm=0 / deadzone=21,11 / fast_pskip=0 / chroma_qp_offset=-2 / threads=12 / lookahead_threads=2 / sliced_threads=0 / nr=0 / decimate=0 / interlaced=0 / bluray_compat=0 / constrained_intra=0 / bframes=2 / b_pyramid=0 / b_adapt=2 / b_bias=0 / direct=3 / weightb=1 / open_gop=0 / weightp=2 / keyint=240 / keyint_min=1 / scenecut=40 / intra_refresh=0 / rc_lookahead=60 / rc=crf / mbtree=1 / crf=20.0 / qcomp=0.60 / qpmin=0 / qpmax=69 / qpstep=8 / ip_ratio=1.40 / aq=1:1.00
Encoded date : UTC 2013-01-06 03:23:14
Tagged date : UTC 2013-01-06 03:23:25

Audio
ID : 2
Format : AAC
Format/Info : Advanced Audio Codec
Format profile : LC
Codec ID : 40
Duration : 23mn 59s
Bit rate mode : Variable
Bit rate : 160 Kbps
Maximum bit rate : 198 Kbps
Channel(s) : 2 channels
Channel positions : Front: L R
Sampling rate : 48.0 KHz
Compression mode : Lossy
Stream size : 27.5 MiB (8%)
Language : Japanese
Encoded date : UTC 2013-01-06 03:23:17
Tagged date : UTC 2013-01-06 03:23:25
info [Профиль]  [ЛС] 

Big23

Стаж: 6 лет 5 месяцев

Сообщений: 993

Зимбабве
Рейтинг

post 16-Янв-2013 03:44 (спустя 9 часов) [-]0[+]

[Цитировать] 

В своё время, в близком (и не таком лихом) 90-м году "Легенда о псах-воинах" показала (мне) клёвую графику и экшон (когда бились под дождём (вроооде бы, не буду сайчас пересматривать) -там было круто, в стиле Самурай Чамплу, студии 4градуса etc.), кроме этой шикарной сцены, вроде была обыкновеннейшая "нет повести пичальнее на свете" + "вобщем, все померли" + традиционная япониш мистика про козлов -демонов что гнобят крутых, но ужасно не секущих фишку японцев. Очень интересно узнать, что, спустя много лун, тут натворили с сериалом.

_________________
везде требуются космонавты
info [Профиль]  [ЛС] 

Sunny17

Пол: Пол:Жен

Стаж: 7 лет 3 месяца

Сообщений: 733

Россия
Рейтинг

post 17-Янв-2013 10:09 (спустя 1 день 6 часов) [-]0[+]

[Цитировать] 

Обновление:
  • Добавлена вторая серия
  • Субтитры:
    • Amanri & HR & L-MT [2]

Будьте внимательны: папки были переименованы.

_________________
info [Профиль]  [ЛС] 

Sunny17

Пол: Пол:Жен

Стаж: 7 лет 3 месяца

Сообщений: 733

Россия
Рейтинг

post 18-Янв-2013 15:49 (спустя 1 день 5 часов) [-]0[+]

[Цитировать] 

Обновление:
  • Озвучка:
    • ZaRT & Kiara_Laine [2]

_________________
info [Профиль]  [ЛС] 

Sunny17

Пол: Пол:Жен

Стаж: 7 лет 3 месяца

Сообщений: 733

Россия
Рейтинг

post 31-Янв-2013 14:27 (спустя 12 дней) [-]0[+]

[Цитировать] 

Обновление:
  • Добавлена третья серия
  • Субтитры:
    • KBM TeaM [2-3]
    • Amanri & HR & L-MT [3]

_________________
info [Профиль]  [ЛС] 

Sunny17

Пол: Пол:Жен

Стаж: 7 лет 3 месяца

Сообщений: 733

Россия
Рейтинг

post 05-Мар-2013 12:57 (спустя 1 месяц 4 дня) [-]0[+]

[Цитировать] 

Обновление:
  • Добавлены 4-7 серии
  • Субтитры:
    • Amanri & HR & L-MT [4-7]

_________________
info [Профиль]  [ЛС] 

Sunny17

Пол: Пол:Жен

Стаж: 7 лет 3 месяца

Сообщений: 733

Россия
Рейтинг

post 10-Апр-2013 09:09 (спустя 1 месяц 4 дня) [-]0[+]

[Цитировать] 

Обновление:
  • Добавлены 8-11 серии
  • Озвучка:
    • ZaRT & Kiara_Laine [3-6]
  • Субтитры:
    • Amanri & HR & L-MT [8-11]

_________________
info [Профиль]  [ЛС] 

Sunny17

Пол: Пол:Жен

Стаж: 7 лет 3 месяца

Сообщений: 733

Россия
Рейтинг

post 28-Май-2013 20:00 (спустя 1 месяц 18 дней) [-]0[+]

[Цитировать] 

Обновление:
  • Добавлены 12-13 серии
  • Субтитры:
    • Amanri & HR & L-MT [12-13]

_________________
info [Профиль]  [ЛС] 

Sunny17

Пол: Пол:Жен

Стаж: 7 лет 3 месяца

Сообщений: 733

Россия
Рейтинг

post 31-Июл-2013 14:27 (спустя 2 месяца 2 дня) [-]0[+]

[Цитировать] 

Обновление:
  • Озвучка:
    • ZaRT & Kiara_Laine [7-13]

Релиз завершен. Приятного просмотра.

_________________
info [Профиль]  [ЛС] 
Показать сообщения:    
Ответить на тему

Текущее время: 10-Дек 03:15

Часовой пояс: GMT + 4



Вы не можете начинать темы
Вы не можете отвечать на сообщения
Вы не можете редактировать свои сообщения
Вы не можете удалять свои сообщения
Вы не можете голосовать в опросах
Вы не можете прикреплять файлы к сообщениям
Вы не можете скачивать файлы