Ошибка

Михаил Задорнов: Все будет чики-пуки [2013 г., Юмор, SATRip]

Ответить на тему
 
Автор Сообщение

Mephi1000fel

Пол: Пол:Муж

Стаж: 5 лет 2 месяца

Сообщений: 286

СССР
Рейтинг

post 01-Янв-2013 18:16 13[+]

[Цитировать] 

Михаил Задорнов: Все будет чики-пуки


Год выпуска: 2013
Страна: Россия
Жанр: Юмор
Продолжительность: 01:35:29
Перевод: Не требуется
Язык субтитров: нет
В ролях:
  • Михаил Задорнов

Описание: В новогоднем концерте «Все будет чики-пуки!!!» Михаил Задорнов анализирует все возрастающее влияние Интернета на молодежь, размышляет о спортивных баталиях ушедшего года, о политике и политиках, шоу-бизнесе и телевидении, о парадоксах образования.
Качество: SATRip
Формат: AVI
Видео кодек: XviD
Аудио кодек: MP3
Видео: 640х480, 25 fps, 1632 Kbps
Аудио: 48 kHz, MPEG Layer 3, 2 ch, ~128.00 kbps avg

Код:

General
Complete name                            : F:\Михаил Задорнов. Все будет чики-пуки (2013.01.01).avi
Format                                   : AVI
Format/Info                              : Audio Video Interleave
File size                                : 1.09 GiB
Duration                                 : 1h 35mn
Overall bit rate                         : 1 632 Kbps
Writing application                      : VirtualDubMod 1.5.10.2 (build 2542/release)
Writing library                          : VirtualDubMod build 2542/release

Video
ID                                       : 0
Format                                   : MPEG-4 Visual
Format profile                           : Advanced Simple@L5
Format settings, BVOP                    : Yes
Format settings, QPel                    : No
Format settings, GMC                     : No warppoints
Format settings, Matrix                  : Default (MPEG)
Codec ID                                 : XVID
Codec ID/Hint                            : XviD
Duration                                 : 1h 35mn
Source duration                          : 33mn 32s
Bit rate                                 : 20.2 Mbps
Width                                    : 640 pixels
Height                                   : 480 pixels
Display aspect ratio                     : 4:3
Frame rate                               : 25.000 fps
Color space                              : YUV
Chroma subsampling                       : 4:2:0
Bit depth                                : 8 bits
Scan type                                : Progressive
Compression mode                         : Lossy
Bits/(Pixel*Frame)                       : 2.631
Stream size                              : 4.73 GiB
Writing library                          : XviD 1.2.1 (UTC 2008-12-04)

Audio
ID                                       : 1
Format                                   : MPEG Audio
Format version                           : Version 1
Format profile                           : Layer 3
Mode                                     : Joint stereo
Mode extension                           : MS Stereo
Codec ID                                 : 55
Codec ID/Hint                            : MP3
Duration                                 : 1h 35mn
Source duration                          : 38h 23mn
Bit rate mode                            : Constant
Bit rate                                 : 128 Kbps
Channel(s)                               : 2 channels
Sampling rate                            : 48.0 KHz
Compression mode                         : Lossy
Delay relative to video                  : 8ms
Stream size                              : 2.06 GiB
Alignment                                : Split accross interleaves
Interleave, duration                     : 40 ms (1.00 video frame)
Interleave, preload duration             : 500 ms

info [Профиль]  [ЛС] 

cedi316

Пол: Пол:Муж

Стаж: 6 лет 8 месяцев

Сообщений: 68

Россия
Рейтинг

post 01-Янв-2013 18:52 (спустя 35 минут) [-]4[+]

[Цитировать] 

Спасибо! Люблю Задорнова...

_________________
info [Профиль]  [ЛС] 

Caesar

Стаж: 7 лет 8 месяцев

Сообщений: 266

Антигуа и Барбуда
Рейтинг

post 01-Янв-2013 21:13 (спустя 2 часа 21 минута) [-]7[+]

[Цитировать] 

спасибо, скачал... увы уже не так смешно как было раньше.... толи Задоронов не тот, толи надоела одинаковая песня про "тупыеее". Странная беседа про молодежь... Конечно есть и такой интернет, но есть и нормальные, серьезные блоги и сайты. Хотя может быть, для быдло-троллей и нужны такие разъяснительные беседы.
Хотя, очень порадовала - "как мы можем хотеть честных выборов, когда половина народа ворует, а остальные подворовывают."
увы, много шуток уже бояны из башорга или контакта.... привет Петросян.

_________________
info [Профиль]  [ЛС] 

H1GH_dAmAGE

Пол: Пол:Муж

Стаж: 4 года 11 месяцев

Сообщений: 54

Республика Корея
Рейтинг

post 01-Янв-2013 21:16 (спустя 2 минуты) [-]0[+]

[Цитировать] 

Mephi1000fel
Благодарю за концерт, как раз не успел по ящику посмотреть... Буду сидировать до посинения kolob_118
Поставил качать Задронова, пока его раздают
Люблю его < anime_2

_________________

a.k.a. Luminous
info [Профиль]  [ЛС] 

naTpuoT

Пол: Пол:Муж

Стаж: 6 лет 10 месяцев

Сообщений: 69

СССР
Рейтинг

post 01-Янв-2013 22:22 (спустя 1 час 6 минут) [-]0[+]

[Цитировать] 

Спасибо, давно его концертов не было.
info [Профиль]  [ЛС] 
Показать сообщения:    
Ответить на тему

Текущее время: 08-Дек 09:57

Часовой пояс: GMT + 4



Вы не можете начинать темы
Вы не можете отвечать на сообщения
Вы не можете редактировать свои сообщения
Вы не можете удалять свои сообщения
Вы не можете голосовать в опросах
Вы не можете прикреплять файлы к сообщениям
Вы не можете скачивать файлы